Поиск

2020 Eddie Henderson - Shuffle and Deal {Smoke Sessions} [24-96]

2020 Eddie Henderson - Shuffle and Deal {Smoke Sessions} [24-96]
Издатель (лейбл):
Битрейт аудио:
lossless

Треклист:

01. Shuffle and Deal (Henderson) 05:30
02. Flight Path (Barron) 05:15
03. Over The Rainbow (Harburg, Arlen) 08:11
04. By Any Means (Cava Lee Menzies) 03:15
05. Cook's Bay (Barron) 07:19
06. It Might As Well Be Spring (Rodgers / Hammerstein) 09:22
07. Boom (Natsuko Henderson) 04:03
08. God Bless The Child (Herzog, Holiday) 06:53
09. Burnin' (Harrison) 04:56
10. Smile (Chaplin) 04:13

Доп. инфо:

Формат записи/Источник записи: [TR24][OF]
Наличие водяных знаков: Нет
Год издания/переиздания диска: 2020
Продолжительность: 00:59:02
Наличие сканов в содержимом раздачи: Нет

Контейнер: FLAC (*.flac)
Тип рипа: tracks
Разрядность: 24/96
Формат: PCM
Количество каналов: 2.0

Источник (релизер): highresaudio.com (Anakunda)

Лог проверки качества
foobar2000 1.6 beta 8 / Dynamic Range Meter 1.1.1
log date: 2020-07-29 05:30:32

--------------------------------------------------------------------------------
Analyzed: Eddie Henderson / Shuffle and Deal
--------------------------------------------------------------------------------

DR         Peak         RMS     Duration Track
--------------------------------------------------------------------------------
DR10      -1.40 dB   -12.83 dB      5:30 01-Shuffle and Deal
DR9       -1.40 dB   -12.05 dB      5:15 02-Flight Path
DR12      -1.30 dB   -16.33 dB      8:11 03-Over the Rainbow
DR10      -1.40 dB   -13.07 dB      3:15 04-By Any Means
DR10      -1.40 dB   -13.00 dB      7:20 05-Cook's Bay
DR12      -1.30 dB   -16.64 dB      9:23 06-It Might as Well Be Spring
DR10      -1.40 dB   -11.95 dB      4:04 07-Boom
DR13      -1.30 dB   -16.57 dB      6:53 08-God Bless the Child
DR9       -1.40 dB   -12.11 dB      4:57 09-Burnin'
DR11      -1.30 dB   -16.00 dB      4:14 10-Smile
--------------------------------------------------------------------------------

Number of tracks:  10
Official DR value: DR10

Samplerate:        96000 Hz
Channels:          2
Bits per sample:   24
Bitrate:           2222 kbps
Codec:             FLAC
================================================================================
Приватный:
Нет (DHT включён)
Размер:
1.07 Гб (1,152,111,441 байт) » файлов: 12
Участники:
0 раздают, 0 качают (0 участников всего)
Внешние участники:
3 раздают, 1 качают (4 участников всего) [ Обновить ]
No seeders - write personal message to M0p94ok. Нет сидеров - пишите в личку M0p94ok.
20:45
98
Нет комментариев. Ваш будет первым!