Вы используете незарегистрированную версию компонента "Вкладки"!

Поиск

2019 Gentiane MG Trio - Wonderland {Effendi} [24-44.1]

2019 Gentiane MG Trio - Wonderland {Effendi} [24-44.1]
Стили:
Место записи:
Effendi Records Studio 270, Montreal, Canada
Дата издания диска:
17 мая 2019
Номер по каталогу:
FND154
Носитель:
WEB
Формат:
PCM
Тип рипа:
tracks
Контейнер:
FLAC (*.flac)
Количество каналов:
2.0
Битрейт аудио:
lossless
Время звучания:
00:55:44
Наличие сканов:
буклет pdf
Страна-производитель диска (релиза):
Canada
Релизёр (источник):
M0p94ok
Лог проверки качества
foobar2000 1.3.16 / Dynamic Range Meter 1.1.1
log date: 2019-05-17 12:09:21

--------------------------------------------------------------------------------
Analyzed: Gentiane MG Trio / Wonderland
--------------------------------------------------------------------------------

DR         Peak         RMS     Duration Track
--------------------------------------------------------------------------------
DR14      -2.24 dB   -21.11 dB      0:58 01-Opening (Forgiveness)
DR12      -0.06 dB   -15.04 dB      5:47 02-Erased Self
DR12      -0.03 dB   -14.09 dB      4:48 03-Blue - Noir - Sol
DR13      -0.12 dB   -15.90 dB      5:02 04-Road to Nowhere
DR13      -0.02 dB   -14.74 dB      4:59 05-Empty Canvas
DR13      -0.12 dB   -15.29 dB      4:28 06-Heavy Weight
DR11       0.00 dB   -13.54 dB      4:33 07-Wonderland, Pt. 1 (Comeback)
DR13      -3.93 dB   -21.43 dB      3:20 08-Wonderland, Pt. 2 (Shadows)
DR12       0.00 dB   -15.13 dB      5:07 09-Wonderland, Pt. 3 (Unbearable)
DR11      -0.88 dB   -18.46 dB      1:49 10-Interlude (Sanctuary)
DR14      -0.12 dB   -16.15 dB      4:42 11-L'Heure du Thé: L'heure du thé
DR12       0.00 dB   -15.82 dB      5:02 12-Fool's Gold
DR14      -0.12 dB   -19.76 dB      5:11 13-Repentance
--------------------------------------------------------------------------------

Number of tracks:  13
Official DR value: DR13

Samplerate:        44100 Hz
Channels:          2
Bits per sample:   24
Bitrate:           619 kbps
Codec:             FLAC
================================================================================
Any questions - support@pro-jazz.com. Есть вопросы - support@pro-jazz.com
17:10
133
Нет комментариев. Ваш будет первым!