Поиск

1984 The Square - Adventures (2015) {Sony} [DSD64]

1984 The Square - Adventures (2015) {Sony} [DSD64]
Стили:
Издатель (лейбл):
Битрейт аудио:
lossless

Треклист:

1. Adventures (Prologue)  01:32
2. All About You  03:31
3. Night Dreamer  06:07
4. Sister Marian  04:44
5. Rodan  03:25
6. Jubilee  04:51
7. Cape Light  06:37
8. TravelersThe Square  05:05
9. Adventures (Epilogue)  03:51

Доп. инфо:

Формат записи/Источник записи: [DSD][OF]
Наличие водяных знаков: Нет
Год издания/переиздания диска: 1984/2015
Продолжительность: 00:39:46
Наличие сканов в содержимом раздачи: Только обложка альбома

Контейнер: DFF (*.dff)
Тип рипа: tracks
Разрядность: 64(2,8 MHz/1 Bit)
Формат: DSD
Количество каналов: 2.0

Источник (релизер): mora.jp

Лог проверки качества
foobar2000 1.6.3 / Замер динамического диапазона (DR) 1.1.1
Дата отчёта:  2021-01-22 20:09:20

--------------------------------------------------------------------------------
Анализ:   The Square / Adventures
--------------------------------------------------------------------------------

DR         Пики         RMS           Продолжительность трека
--------------------------------------------------------------------------------
DR9       -5.54 дБ   -18.28 дБ      1:32 01-Adventures (Prologue)
DR9       -5.56 дБ   -16.08 дБ      3:31 02-All About You
DR9       -6.07 дБ   -17.02 дБ      6:07 03-Night Dreamer
DR11      -6.00 дБ   -18.60 дБ      4:45 04-Sister Marian
DR8       -5.70 дБ   -15.03 дБ      3:25 05-Rodan
DR10      -5.69 дБ   -17.05 дБ      4:51 06-Jubilee
DR11      -5.26 дБ   -20.21 дБ      6:37 07-Cape Light
DR9       -5.15 дБ   -15.66 дБ      5:06 08-Travelers
DR8       -5.40 дБ   -14.89 дБ      3:51 09-Adventures (Epilogue)
--------------------------------------------------------------------------------

Количество треков: 9
Реальные значения DR: DR9

Частота:  2822400 Гц / Частота PCM: 352800 Гц
Каналов:  2
Разрядность:   1
Битрейт:  5645 кбит/с
Кодек:   DSD64
================================================================================
Приватный:
Нет (DHT включён)
Размер:
1.57 Гб (1,683,950,962 байт) » файлов: 11
Участники:
0 раздают, 0 качают (0 участников всего)
Внешние участники:
7 раздают, 2 качают (9 участников всего) [ Обновить ]
No seeders - write personal message to M0p94ok. Нет сидеров - пишите в личку M0p94ok.
00:10
87
Нет комментариев. Ваш будет первым!