Поиск

1985 The Square - Resort (2015) {Sony} [DSD64]

1985 The Square - Resort (2015) {Sony} [DSD64]
Стили:
Издатель (лейбл):
Битрейт аудио:
lossless
Доп. инфо:

Формат записи/Источник записи: [DSD][OF]
Наличие водяных знаков: Нет
Год издания/переиздания диска: 1985/2015
Продолжительность: 00:39:39
Наличие сканов в содержимом раздачи: Только обложка альбома

Контейнер: DFF (*.dff)
Тип рипа: tracks
Разрядность: 64(2,8 MHz/1 Bit)
Формат: DSD
Количество каналов: 2.0

Источник (релизер): mora.jp

Лог проверки качества
foobar2000 1.6.3 / Замер динамического диапазона (DR) 1.1.1
Дата отчёта:  2021-01-22 21:36:37

--------------------------------------------------------------------------------
Анализ:   The Square / R・E・S・O・R・T
--------------------------------------------------------------------------------

DR         Пики         RMS           Продолжительность трека
--------------------------------------------------------------------------------
DR9       -4.97 дБ   -15.11 дБ      4:07 01-Omens of Love
DR10      -5.54 дБ   -16.82 дБ      4:32 02-Feel Alright
DR10      -5.63 дБ   -16.89 дБ      4:06 03-Chances
DR10      -5.65 дБ   -16.54 дБ      1:23 04-Stimulator
DR10      -4.98 дБ   -17.92 дБ      5:21 05-We'll Never Have A Trouble
DR9       -5.17 дБ   -15.90 дБ      4:34 06-In the Grid
DR11      -4.54 дБ   -16.43 дБ      5:02 07-Merylu
DR8       -5.61 дБ   -15.40 дБ      4:19 08-Prime
DR9       -5.68 дБ   -17.57 дБ      6:15 09-Forgotten Saga
--------------------------------------------------------------------------------

Количество треков: 9
Реальные значения DR: DR9

Частота:  2822400 Гц / Частота PCM: 352800 Гц
Каналов:  2
Разрядность:   1
Битрейт:  5645 кбит/с
Кодек:   DSD64
================================================================================
No seeders - write personal message to M0p94ok. Any questions - support@pro-jazz.com.
Нет сидеров - пишите в личку M0p94ok. Есть вопросы - support@pro-jazz.com
01:42
126
Нет комментариев. Ваш будет первым!