Поиск

2020 Ahmed El-Salamouny - Rio Rhythms {Acoustic Music} [24-88.2]

2020 Ahmed El-Salamouny - Rio Rhythms {Acoustic Music} [24-88.2]
Стили:
Дата издания диска:
11 декабря 2020
Битрейт аудио:
lossless

Треклист:

01. Salvador  03:48
02. Babaçu  03:09
03. Amor de Índio  03:31
04. Brisa Mar  02:48
05. Manhã de Carnaval  04:26
06. Noronha  03:31
07. Crystal Voyager  04:35
08. Deixa  03:16
09. Graúna  03:32
10. Bambu  03:35
11. Dia de Chuva  03:26
12. Água de Beber  04:01
13. Feitiço da Vila  03:26
14. Without You  01:58
15. Endless Summer  03:00
16. Lavoura  03:50
17. Rio  04:02

Доп. инфо:

Формат записи/Источник записи: [TR24][OF]
Год издания/переиздания диска: 2020
Издатель (лейбл): Acoustic Music Records
Продолжительность: 00:59:30
Наличие сканов в содержимом раздачи: Буклет PDF

Контейнер: FLAC (*.flac)
Тип рипа: tracks
Разрядность: 24/88,2
Количество каналов: 2.0

Источник (релизер): HIGHRESAUDIO

Лог проверки качества
foobar2000 1.6.2 / Dynamic Range Meter 1.1.1
log date: 2020-12-11 20:41:47

--------------------------------------------------------------------------------
Analyzed: Ahmed El-Salamouny / Rio Rhythms
--------------------------------------------------------------------------------

DR         Peak         RMS     Duration Track
--------------------------------------------------------------------------------
DR12      -0.25 dB   -14.43 dB      3:47 01-Salvador
DR12      -0.25 dB   -14.52 dB      3:10 02-Babaçu
DR12      -1.31 dB   -15.54 dB      3:30 03-Amor de Índio
DR13      -0.25 dB   -15.00 dB      2:48 04-Brisa Mar
DR12      -0.25 dB   -14.47 dB      4:26 05-Manhã de Carnaval
DR12      -0.43 dB   -15.89 dB      3:30 06-Noronha
DR11      -0.25 dB   -14.77 dB      4:36 07-Crystal Voyager
DR12      -0.25 dB   -14.39 dB      3:15 08-Deixa
DR12      -0.25 dB   -14.47 dB      3:31 09-Graúna
DR13      -0.25 dB   -16.57 dB      3:34 10-Bambu
DR13      -0.25 dB   -15.59 dB      3:25 11-Dia de Chuva
DR12      -0.25 dB   -14.40 dB      3:59 12-Água de Beber
DR12      -0.25 dB   -14.56 dB      3:05 13-Feitiço da Vila
DR14      -0.25 dB   -16.17 dB      1:57 14-Without You
DR12      -0.25 dB   -14.79 dB      2:58 15-Endless Summer
DR12      -0.82 dB   -15.16 dB      3:49 16-Lavoura
DR12      -0.60 dB   -14.77 dB      4:02 17-Rio
--------------------------------------------------------------------------------

Number of tracks:  17
Official DR value: DR12

Samplerate:        88200 Hz
Channels:          2
Bits per sample:   24
Bitrate:           2584 kbps
Codec:             FLAC
================================================================================
Приватный:
Нет (DHT включён)
Размер:
1.06 Гб (1,134,588,178 байт) » файлов: 23
Участники:
0 раздают, 0 качают (0 участников всего)
Внешние участники:
2 раздают, 1 качают (3 участников всего) [ Обновить ]
No seeders - write personal message to M0p94ok. Нет сидеров - пишите в личку M0p94ok.
14:27
78
14:29