Вы используете незарегистрированную версию компонента "Вкладки"!

Поиск

1978 The Square - Midnight Lover (2015) {Sony} [DSD64]

1978 The Square - Midnight Lover (2015) {Sony} [DSD64]
Стили:
Дата издания диска:
21 декабря 1978
Издатель (лейбл):
Битрейт аудио:
lossless
Доп. инфо:

Формат записи/Источник записи: [DSD][OF]
Наличие водяных знаков: Нет
Год издания/переиздания диска: 1978/2015
Продолжительность: 00:29:17
Наличие сканов в содержимом раздачи: Только обложка альбома

Контейнер: DFF (*.dff)
Тип рипа: tracks
Разрядность: 64(2,8 MHz/1 Bit)
Формат: DSD
Количество каналов: 2.0

Источник (релизер): mora.jp

Лог проверки качества
foobar2000 1.6.3 / Замер динамического диапазона (DR) 1.1.1
Дата отчёта:  2021-01-23 13:03:49

--------------------------------------------------------------------------------
Анализ:   The Square / Midnight Lover
--------------------------------------------------------------------------------

DR         Пики         RMS           Продолжительность трека
--------------------------------------------------------------------------------
DR12      -5.42 дБ   -18.98 дБ      5:54 01-Lickin' It
DR13      -5.77 дБ   -21.45 дБ      5:05 02-Wrapped Around Your Soul
DR11      -6.08 дБ   -18.56 дБ      3:49 03-Show Dance
DR10      -5.56 дБ   -18.28 дБ      4:25 04-Take The Long Road
DR13      -5.77 дБ   -21.23 дБ      4:59 05-Midnight Lover
DR12      -5.43 дБ   -18.91 дБ      5:06 06-This Song
--------------------------------------------------------------------------------

Количество треков: 6
Реальные значения DR: DR12

Частота:  2822400 Гц / Частота PCM: 352800 Гц
Каналов:  2
Разрядность:   1
Битрейт:  5645 кбит/с
Кодек:   DSD64
================================================================================
Any questions - support@pro-jazz.com. Есть вопросы - support@pro-jazz.com
15:41
172
Нет комментариев. Ваш будет первым!