Поиск

2015 VA - Venus The Amazing Super Audio CD Sampler Vol.5 {Venus} [DSD64]

2015 VA - Venus The Amazing Super Audio CD Sampler Vol.5 {Venus} [DSD64]
Стили:
Издатель (лейбл):
Номер по каталогу:
VHGD-79
Битрейт аудио:
lossless
Треклист:

01. Mambo Inn - Eric Alexander Quartet《 M. Bauza 》
02. Whisper Not - Vladimir Shafranov Trio《 B. Golson 》
03. Europe - Aaron Heick & Romantic Jazz Trio《 C. Santana 》
04. Stolen Moments - One For All《 O. Nelson 》
05. When You Wish Upon A Star - Ken Peplowski Tenor Sax Quartet《 L. Harline 》
06. Blue Bossa - Harold Mabern Trio《 K. Dorham 》
07. Django - Sir Roland Hanna Trio《 J. Lewis 》
08. In The Wee Small Hours Of The Morning - Nicki Parrott And Ken Peplowski《 B. Hilliard - D. Mann 》
09. My Heart Belongs To Daddy - New York Trio《 C. Porter 》
10. Too Darn Hot - Nicki Parrott《 C. Porter 》
11. Love Is A Many-Splendored Thing - Roma Trio《 S. Fain 》
12. I'll Never Stop Loving You - Charles McPherson Quartet《 N. Brodsky 》
13. The Shadow Of Your Smile - Ken Peplowski Clarinet Quartet《 J. Mandel 》
14. Besame Mucho - Barney Wilen Quintet《 C. Velazquez 》
15. Midnight In Moscow - Vladimir Shafranov Trio《 Trad 》

Доп. инфо:

Формат записи/Источник записи: [SACD-R][OF]
Наличие водяных знаков: Нет
Год издания диска: 2015
Продолжительность: 01:25:34
Наличие сканов в содержимом раздачи: Только обложка альбома

Контейнер: ISO (*.iso)
Тип рипа: image
Разрядность: 64(2,8 MHz/1 Bit)
Формат: DSD
Количество каналов: 2.0

Источник (релизер): venusrecords

Лог проверки качества
foobar2000 1.6.3 / Замер динамического диапазона (DR) 1.1.1
Дата отчёта:  2021-01-24 12:31:30

--------------------------------------------------------------------------------
Анализ:   Various Artists / THE VENUS AMAZING SUPER AUDIO CD SAMPLER VOL.5
--------------------------------------------------------------------------------

DR         Пики         RMS           Продолжительность трека
--------------------------------------------------------------------------------
DR9       -3.21 дБ   -14.11 дБ      5:55 01-Mambo Inn
DR9       -3.86 дБ   -13.65 дБ      4:43 02-Whisper Not
DR9       -4.32 дБ   -15.49 дБ      6:13 03-Europe
DR9       -4.46 дБ   -15.09 дБ      7:13 04-Stolen Moments
DR9       -4.98 дБ   -17.25 дБ      5:28 05-When You Wish Upon A Star
DR7       -4.47 дБ   -13.42 дБ      5:53 06-Blue Bossa
DR10      -4.54 дБ   -17.52 дБ      6:15 07-Django
DR5       -5.20 дБ   -11.49 дБ      3:01 08-In The Wee Small Hours Of The Morning
DR10      -4.81 дБ   -16.62 дБ      6:18 09-My Heart BelongsTo Daddy
DR9       -4.49 дБ   -14.59 дБ      3:51 10-Too Dane Hot
DR9       -4.19 дБ   -16.47 дБ      5:16 11-Love Is A Many-Splendored Thing
DR9       -4.50 дБ   -15.62 дБ      7:12 12-I'll Never Stop Loving You
DR7       -4.76 дБ   -15.80 дБ      5:50 13-The Shadow Of Your Smile
DR10      -4.41 дБ   -16.93 дБ      7:23 14-Besame Mucho
DR7       -5.05 дБ   -14.20 дБ      5:02 15-Midnight In Moscow
--------------------------------------------------------------------------------

Количество треков: 15
Реальные значения DR: DR8

Частота:  2822400 Гц / Частота PCM: 352800 Гц
Каналов:  2
Разрядность:   1
Битрейт:  5645 кбит/с
Кодек:   DSD64
================================================================================
Количество треков: 8
Реальные значения DR: DR9

Частота:  2822400 Гц / Частота PCM: 352800 Гц
Каналов:  2
Разрядность:   1
Битрейт:  5645 кбит/с
Кодек:   DSD64
================================================================================
Приватный:
Нет (DHT включён)
Размер:
3.43 Гб (3,684,411,939 байт) » файлов: 4
Участники:
0 раздают, 0 качают (0 участников всего)
Внешние участники:
11 раздают, 4 качают (15 участников всего) [ Обновить ]
No seeders - write personal message to M0p94ok. Нет сидеров - пишите в личку M0p94ok.
20:30
387
Нет комментариев. Ваш будет первым!