Вы используете незарегистрированную версию компонента "Вкладки"!

Поиск

2019 Rosemary Clooney - Musical Moments To Remember - You And Me {Legends} [24-48]

2019 Rosemary Clooney - Musical Moments To Remember - You And Me {Legends} [24-48]
Стили:
Носитель:
WEB
Формат:
PCM
Тип рипа:
tracks
Контейнер:
FLAC (*.flac)
Количество каналов:
2.0
Разрядность/ЧД:
24/48
Битрейт аудио:
lossless
Время звучания:
01:05:55
Наличие сканов:
только обложка
Страна-производитель диска (релиза):
USA
Релизёр (источник):
M0p94ok
Лог проверки качества
foobar2000 1.3.16 / Dynamic Range Meter 1.1.1
log date: 2019-05-12 15:26:53

--------------------------------------------------------------------------------
Analyzed: Al Stillman / Musical moments to remember: "You and me" - Rosemarie Clooney and friends (2019 Remaster) (1)
          Billy Rose / Musical moments to remember: "You and me" - Rosemarie Clooney and friends (2019 Remaster) (2)
          Billy Strayhorn / Musical moments to remember: "You and me" - Rosemarie Clooney and friends (2019 Remaster) (3-4)
          Bob Russell / Musical moments to remember: "You and me" - Rosemarie Clooney and friends (2019 Remaster) (5-6)
          Burton Lane / Musical moments to remember: "You and me" - Rosemarie Clooney and friends (2019 Remaster) (7)
          Duke Ellington / Musical moments to remember: "You and me" - Rosemarie Clooney and friends (2019 Remaster) (8-10)
          Frank Loesser / Musical moments to remember: "You and me" - Rosemarie Clooney and friends (2019 Remaster) (11)
          Harold Weeks / Musical moments to remember: "You and me" - Rosemarie Clooney and friends (2019 Remaster) (12)
          Ira Gershwin / Musical moments to remember: "You and me" - Rosemarie Clooney and friends (2019 Remaster) (13)
          Irving Mills / Musical moments to remember: "You and me" - Rosemarie Clooney and friends (2019 Remaster) (14-16)
          James Van Heusen / Musical moments to remember: "You and me" - Rosemarie Clooney and friends (2019 Remaster) (17-18)
          Jimmy Kennedy / Musical moments to remember: "You and me" - Rosemarie Clooney and friends (2019 Remaster) (19)
          Nemo / Musical moments to remember: "You and me" - Rosemarie Clooney and friends (2019 Remaster) (20)
          Paul Francis Webster / Musical moments to remember: "You and me" - Rosemarie Clooney and friends (2019 Remaster) (21)
          Ray Evans / Musical moments to remember: "You and me" - Rosemarie Clooney and friends (2019 Remaster) (22)
--------------------------------------------------------------------------------

DR         Peak         RMS     Duration Track
--------------------------------------------------------------------------------
DR11       0.00 dB   -12.93 dB      2:13 05-Say "Si Si"
DR11       0.00 dB   -13.34 dB      2:41 20-King of Jazz: It happened in Monterey
DR11       0.00 dB   -14.02 dB      4:12 13-Grievin'
DR11       0.00 dB   -13.85 dB      3:03 22-I'm checking out, Goombye
DR11       0.00 dB   -13.10 dB      2:58 03-You came a long way from Saint Louis
DR11       0.00 dB   -12.26 dB      3:29 09-Brazil
DR12       0.00 dB   -14.55 dB      3:04 12-How about you?
DR11       0.00 dB   -13.30 dB      2:23 04-Me and you
DR12       0.00 dB   -14.38 dB      3:49 10-Hey Baby
DR12       0.00 dB   -14.65 dB      2:16 17-Blue Rose
DR12       0.00 dB   -14.56 dB      2:34 21-On a slow boat to China
DR12       0.00 dB   -13.76 dB      2:49 16-Hindustan
DR11       0.00 dB   -14.79 dB      3:37 18-I can't get started
DR11       0.00 dB   -13.07 dB      2:41 01-It don't mean a thing, If It ain't got That swing
DR12       0.00 dB   -14.80 dB      6:14 06-Mood Indigo
DR11       0.00 dB   -13.79 dB      2:51 19-Sophisticated Lady
DR11       0.00 dB   -13.08 dB      1:55 07-Love won't let get you away
DR11       0.00 dB   -12.91 dB      2:23 11-Fancy meeting you
DR11       0.00 dB   -12.62 dB      2:29 14-Isle of Capri
DR12       0.00 dB   -13.65 dB      2:31 08-I let a song go out of my heart
DR11       0.00 dB   -14.60 dB      3:08 15-I got it bad and that ain't good: I got It bad and That ain't good
DR12       0.00 dB   -13.69 dB      2:48 02-Calcutta
--------------------------------------------------------------------------------

Number of tracks:  22
Official DR value: DR11

Samplerate:        48000 Hz
Channels:          2
Bits per sample:   24
Bitrate:           1602 kbps
Codec:             FLAC
================================================================================
Any questions - support@pro-jazz.com. Есть вопросы - support@pro-jazz.com
00:16
136
Нет комментариев. Ваш будет первым!