Поиск

1984 The Square - Stars And The Moon (2015) {Sony} [DSD64]

1984 The Square - Stars And The Moon (2015) {Sony} [DSD64]
Стили:
Издатель (лейбл):
Битрейт аудио:
lossless

Треклист:

01. いとしのうなじ (Itoshi no Unaji)
02. Maybe I’m Wrong
03. Cry For The Moon
04. Mistral
05. Destination
06. Overnight Sensation
07. Mist Of Time
08. 遠雷 (Enrai)

Доп. инфо:

Формат записи/Источник записи: [DSD][OF]
Наличие водяных знаков: Нет
Год издания/переиздания диска: 1984/2015
Продолжительность: 00:42:45
Наличие сканов в содержимом раздачи: Только обложка альбома

Контейнер: DFF (*.dff)
Тип рипа: tracks
Разрядность: 64(2,8 MHz/1 Bit)
Формат: DSD
Количество каналов: 2.0

Источник (релизер): mora.jp

Лог проверки качества
foobar2000 1.6.3 / Замер динамического диапазона (DR) 1.1.1
Дата отчёта:  2021-01-23 15:46:24

--------------------------------------------------------------------------------
Анализ:   The Square / Stars and the Moon
--------------------------------------------------------------------------------

DR         Пики         RMS           Продолжительность трека
--------------------------------------------------------------------------------
DR8       -5.99 дБ   -15.94 дБ      5:04 01-いとしのうなじ (Itoshi no Unaji)
DR10      -5.48 дБ   -17.15 дБ      4:44 02-Maybe I'm Wrong
DR9       -5.90 дБ   -18.51 дБ      6:48 03-Cry For The Moon
DR10      -5.79 дБ   -18.11 дБ      4:47 04-Mistral
DR9       -5.90 дБ   -17.65 дБ      5:36 05-Destination
DR8       -5.96 дБ   -15.62 дБ      4:55 06-Overnight Sensation
DR9       -5.34 дБ   -16.45 дБ      5:44 07-Mist Of Time
DR11      -6.79 дБ   -21.49 дБ      5:09 08-遠雷 (Enrai)
--------------------------------------------------------------------------------

Количество треков: 8
Реальные значения DR: DR9

Частота:  2822400 Гц / Частота PCM: 352800 Гц
Каналов:  2
Разрядность:   1
Битрейт:  5645 кбит/с
Кодек:   DSD64
================================================================================
Приватный:
Нет (DHT включён)
Размер:
1.69 Гб (1,811,053,339 байт) » файлов: 10
Участники:
0 раздают, 0 качают (0 участников всего)
Внешние участники:
5 раздают, 2 качают (7 участников всего) [ Обновить ]
No seeders - write personal message to M0p94ok. Нет сидеров - пишите в личку M0p94ok.
00:30
79
Нет комментариев. Ваш будет первым!