Поиск

2018 The Jamie Baum Septet + - Bridges {Sunnyside} [24-96]

2018 The Jamie Baum Septet + - Bridges {Sunnyside} [24-96]
Издатель (лейбл):
Номер по каталогу:
SSC 1502
Носитель:
WEB
Формат:
PCM
Тип рипа:
tracks
Контейнер:
FLAC (*.flac)
Количество каналов:
2.0
Разрядность/ЧД:
24/96
Битрейт аудио:
lossless
Время звучания:
00:59:34
Наличие сканов:
только обложка
Наличие водяных знаков:
нет
Страна-производитель диска (релиза):
USA
Релизёр (источник):
M0p94ok
Треклист:

1. From The Well. 7:49
2. Song Without Words (for S. James Baum). 6:51
3. There Are No Words. 5:59
4. Honoring Nepal: The Shiva Suite Part 1 - The Earthquake. 5:56
5. Honoring Nepal: The Shiva Suite Part 2 - Renewal. 7:13
6. Honoring Nepal: The Shiva Suite Part 3 - Contemplation. 6:37
7. Joyful Lament. 5:31
8. Mantra. 4:24
9. UCross Me. 9:10

Лог проверки качества
foobar2000 1.3.16 / Dynamic Range Meter 1.1.1
log date: 2019-05-22 15:05:26

--------------------------------------------------------------------------------
Analyzed: Jamie Baum / Bridges
--------------------------------------------------------------------------------

DR         Peak         RMS     Duration Track
--------------------------------------------------------------------------------
DR10      -0.40 dB   -11.90 dB      7:50 01-From the Well
DR9       -0.53 dB   -13.44 dB      6:51 02-Song Without Words (for S. James Baum)
DR10      -0.40 dB   -13.36 dB      5:59 03-There Are No Words
DR10      -0.40 dB   -15.52 dB      5:56 04-Honoring Nepal: The Shiva Suite - I. The Earthquake
DR10      -0.41 dB   -13.88 dB      7:14 05-Honoring Nepal: The Shiva Suite - II. Renewal
DR10      -0.40 dB   -13.61 dB      6:38 06-Honoring Nepal: The Shiva Suite - III. Contemplation
DR9       -0.40 dB   -12.01 dB      5:32 07-Joyful Lament
DR11      -5.66 dB   -21.33 dB      4:24 08-Mantra
DR9       -0.40 dB   -12.60 dB      9:11 09-UCross Me
--------------------------------------------------------------------------------

Number of tracks:  9
Official DR value: DR10

Samplerate:        96000 Hz
Channels:          2
Bits per sample:   24
Bitrate:           2743 kbps
Codec:             FLAC
================================================================================
Приватный:
Нет (DHT включён)
Размер:
1.12 Гб (1,203,602,353 байт) » файлов: 11
Участники:
2 раздают, 0 качают (2 участников всего)
Внешние участники:
--- [ Обновить ]
No seeders - write personal message to M0p94ok. Нет сидеров - пишите в личку M0p94ok.
02:10
127
Нет комментариев. Ваш будет первым!