Вы используете незарегистрированную версию компонента "Вкладки"!

Поиск

2015 VA - Venus The Amazing Super Audio CD Sampler Vol.4 {Venus} [DSD64]

2015 VA - Venus The Amazing Super Audio CD Sampler Vol.4 {Venus} [DSD64]
Стили:
Издатель (лейбл):
Номер по каталогу:
VHGD-73
Битрейт аудио:
lossless
Доп. инфо:

Формат записи/Источник записи: [SACD-R][OF]
Наличие водяных знаков: Нет
Издание: Sampler
Год издания диска: 2015
Продолжительность: 01:25:48
Наличие сканов в содержимом раздачи: Только обложка альбома

Контейнер: ISO (*.iso)
Тип рипа: image
Разрядность: 64(2,8 MHz/1 Bit)
Формат: DSD
Количество каналов: 2.0

Источник (релизер): venusrecords

Лог проверки качества
foobar2000 1.6.3 / Замер динамического диапазона (DR) 1.1.1
Дата отчёта:  2021-01-24 12:05:32

--------------------------------------------------------------------------------
Анализ:   Various Artists / THE VENUS AMAZING SUPER AUDIO CD SAMPLER VOL.4
--------------------------------------------------------------------------------

DR         Пики         RMS           Продолжительность трека
--------------------------------------------------------------------------------
DR8       -4.65 дБ   -15.91 дБ      4:32 01-God Rest Ye Merry Christmas
DR9       -5.11 дБ   -16.35 дБ      4:28 02-We Three Kings Of Orient Are
DR8       -5.12 дБ   -16.11 дБ      6:11 03-Swan Lake
DR9       -3.60 дБ   -16.16 дБ      7:18 04-More Than You Know
DR8       -5.21 дБ   -15.62 дБ      6:51 05-Ghost Of A Chance
DR9       -4.73 дБ   -16.08 дБ      7:44 06-Mona Lisa
DR8       -4.71 дБ   -14.12 дБ      2:59 07-Cleopatra's Dream
DR9       -5.24 дБ   -16.24 дБ      6:15 08-Lover Come Back To Me
DR8       -4.89 дБ   -14.34 дБ      4:55 09-April Showers
DR8       -5.29 дБ   -14.54 дБ      4:53 10-I Told Ya I Love Ya, Now Get Out
DR7       -5.11 дБ   -14.20 дБ      3:18 11-Again
DR9       -4.80 дБ   -16.51 дБ      9:48 12-In The Middle Of A Kiss
DR9       -4.88 дБ   -16.09 дБ      6:27 13-Blue Bossa
DR7       -4.62 дБ   -13.09 дБ      5:36 14-Harlem Nocturne
DR8       -4.80 дБ   -13.99 дБ      4:34 15-Moonlight Serenade
--------------------------------------------------------------------------------

Количество треков: 15
Реальные значения DR: DR8

Частота:  2822400 Гц / Частота PCM: 352800 Гц
Каналов:  2
Разрядность:   1
Битрейт:  5645 кбит/с
Кодек:   DSD64
================================================================================
Any questions - support@pro-jazz.com. Есть вопросы - support@pro-jazz.com
14:36
147
Нет комментариев. Ваш будет первым!