Поиск

1980 The Square - Rockoon (2015) {Sony} [DSD64]

1980 The Square - Rockoon (2015) {Sony} [DSD64]
Стили:
Дата издания диска:
1 апреля 1980
Издатель (лейбл):
Битрейт аудио:
lossless
Доп. инфо:

Формат записи/Источник записи: [DSD][OF]
Наличие водяных знаков: Нет
Год издания/переиздания диска: 1980/2015
Продолжительность: 00:39:06
Наличие сканов в содержимом раздачи: Только обложка альбома

Контейнер: DFF (*.dff)
Тип рипа: tracks
Разрядность: 64(2,8 MHz/1 Bit)
Формат: DSD
Количество каналов: 2.0

Источник (релизер): mora.jp

 

Лог проверки качества
foobar2000 1.6.3 / Замер динамического диапазона (DR) 1.1.1
Дата отчёта:  2021-01-24 16:58:35

--------------------------------------------------------------------------------
Анализ:   The Square / Rockoon
--------------------------------------------------------------------------------

DR         Пики         RMS           Продолжительность трека
--------------------------------------------------------------------------------
DR8       -6.45 дБ   -16.58 дБ      3:13 01-Rockoon
DR8       -6.34 дБ   -16.46 дБ      4:47 02-Really Love
DR8       -6.29 дБ   -16.96 дБ      4:44 03-Tomorrow's Affair
DR8       -6.46 дБ   -16.01 дБ      4:34 04-Banana
DR14      -7.79 дБ   -24.94 дБ      1:54 05-複眼人生 (The Way I Feel)
DR9       -6.09 дБ   -16.78 дБ      6:54 06-Little Pop Sugar
DR8       -6.37 дБ   -16.13 дБ      3:51 07-Come Back
DR8       -6.68 дБ   -16.78 дБ      3:32 08-It's Happening Again
DR9       -6.84 дБ   -18.95 дБ      5:37 09-Good Night
--------------------------------------------------------------------------------

Количество треков: 9
Реальные значения DR: DR9

Частота:  2822400 Гц / Частота PCM: 352800 Гц
Каналов:  2
Разрядность:   1
Битрейт:  5645 кбит/с
Кодек:   DSD64
================================================================================
No seeders - write personal message to M0p94ok. Any questions - support@pro-jazz.com.
Нет сидеров - пишите в личку M0p94ok. Есть вопросы - support@pro-jazz.com
19:22
140
Нет комментариев. Ваш будет первым!