Вы используете незарегистрированную версию компонента "Вкладки"!

Поиск

2019 La Estación Del Mar - Meditation for Chakras {Publimáster} [24-44.1]

2019 La Estación Del Mar - Meditation for Chakras {Publimáster} [24-44.1]
Дата издания диска:
31 марта 2019
Носитель:
WEB
Формат:
PCM
Тип рипа:
tracks
Контейнер:
FLAC (*.flac)
Количество каналов:
2.0
Разрядность/ЧД:
24/44,1
Битрейт аудио:
lossless
Время звучания:
00:55:01
Наличие сканов:
только обложка
Релизёр (источник):
M0p94ok
Лог проверки качества
foobar2000 1.3.16 / Dynamic Range Meter 1.1.1
log date: 2019-04-09 01:10:18

--------------------------------------------------------------------------------
Analyzed: La Estación Del Mar / Meditation for Chakras
--------------------------------------------------------------------------------

DR         Peak         RMS     Duration Track
--------------------------------------------------------------------------------
DR9       -0.10 dB   -12.00 dB      7:23 01-Meditation in F (Desire)
DR10      -0.10 dB   -12.86 dB      6:12 02-Meditation in G (Will)
DR7       -0.10 dB    -9.84 dB      5:55 03-Meditation in E (Emotion)
DR9       -0.10 dB   -10.98 dB      6:46 04-Meditation in A (Knowledge)
DR9       -0.10 dB   -10.80 dB      9:12 05-Meditation in D (Memory)
DR10      -0.10 dB   -13.73 dB      6:43 06-Meditation in B (Wisdom)
DR11      -0.10 dB   -13.31 dB     12:54 07-Meditation in C (Experience)
--------------------------------------------------------------------------------

Number of tracks:  7
Official DR value: DR9

Samplerate:        44100 Hz
Channels:          2
Bits per sample:   24
Bitrate:           1422 kbps
Codec:             FLAC
================================================================================
Any questions - support@pro-jazz.com. Есть вопросы - support@pro-jazz.com
22:07
115
Нет комментариев. Ваш будет первым!