Поиск

1998 Eddie Harris Quartet - Freedom Jazz Dance (2017) {Venus} [DSD64]

1998 Eddie Harris Quartet - Freedom Jazz Dance (2017) {Venus} [DSD64]
Стили:
Издатель (лейбл):
Номер по каталогу:
VHGD-199
Битрейт аудио:
lossless
Доп. инфо:

Формат записи/Источник записи: [SACD-R][OF]
Наличие водяных знаков: Нет
Год издания/переиздания диска: 1998/2017
Продолжительность: 01:03:00
Наличие сканов в содержимом раздачи: Только обложка альбома

Контейнер: ISO (*.iso)
Тип рипа: image
Разрядность: 64(2,8 MHz/1 Bit)
Формат: DSD
Количество каналов: 2.0

Доп. информация: venusrecords
Источник (релизер): jazzy pic

Лог проверки качества
foobar2000 1.6.3 / Замер динамического диапазона (DR) 1.1.1
Дата отчёта:  2021-01-24 17:38:09

--------------------------------------------------------------------------------
Анализ:   EDDIE HARRIS QUARTET / Freedom Jazz Dance
--------------------------------------------------------------------------------

DR         Пики         RMS           Продолжительность трека
--------------------------------------------------------------------------------
DR8       -4.56 дБ   -13.37 дБ      5:29 01-Freedom Jazz Dance
DR7       -4.57 дБ   -13.41 дБ      7:51 02-Stars Fell On Alabama
DR7       -4.56 дБ   -13.09 дБ     10:07 03-Little Sunflower
DR7       -4.57 дБ   -13.65 дБ      6:23 04-Georgia On My Mind
DR7       -4.58 дБ   -13.72 дБ      7:45 05-Lisa Marie
DR7       -4.56 дБ   -13.02 дБ      5:08 06-All The Things You Are
DR7       -4.57 дБ   -13.62 дБ      9:09 07-For All We Know
DR7       -4.53 дБ   -12.32 дБ     11:10 08-Joshua Fit The Battle Of Jericho
--------------------------------------------------------------------------------

Количество треков: 8
Реальные значения DR: DR7

Частота:  2822400 Гц / Частота PCM: 352800 Гц
Каналов:  2
Разрядность:   1
Битрейт:  5645 кбит/с
Кодек:   DSD64
================================================================================
No seeders - write personal message to M0p94ok. Any questions - support@pro-jazz.com.
Нет сидеров - пишите в личку M0p94ok. Есть вопросы - support@pro-jazz.com
13:10
130
Нет комментариев. Ваш будет первым!