Поиск

1968 Gabor Szabo - Bacchanal (2021) {Skye} [24-44.1]

1968 Gabor Szabo - Bacchanal (2021) {Skye} [24-44.1]
Дата записи диска:
9 февраля 1968
Место записи:
Western Recording, Los Angeles, CA, USA
Битрейт аудио:
lossless

Треклист:

01 - Three King Fishers 04:43
02 - Love Is Blue 04:15
03 - Theme From Valley of the Dolls 03:47
04 - Bacchanal 04:55
05 - Sunshine Superman 03:43
06 - Some Velvet Morning 05:22
07 - The Look of Love 03:15
08 - The Divided City 03:19

Доп. инфо:

Формат записи/Источник записи: [TR24][OF]
Издание: Remastered
Год издания/переиздания диска: 1968/2021
Издатель (лейбл): Skye Records
Продолжительность: 00:33:19
Наличие сканов в содержимом раздачи: Нет

Контейнер: FLAC (*.flac)
Тип рипа: tracks
Разрядность: 24/44,1
Количество каналов: 2.0

Источник (релизер): HIGHRESAUDIO

Лог проверки качества
foobar2000 1.4.3 / Dynamic Range Meter 1.1.1
log date: 2021-01-15 22:28:03

--------------------------------------------------------------------------------
Analyzed: Gabor Szabo / Bacchanal
--------------------------------------------------------------------------------

DR         Peak         RMS     Duration Track
--------------------------------------------------------------------------------
DR7       -1.21 dB   -10.70 dB      4:44 01-Three King Fishers
DR8       -1.21 dB   -11.26 dB      4:16 02-Love Is Blue
DR7       -1.21 dB   -11.26 dB      3:47 03-Theme From Valley of the Dolls
DR10      -1.21 dB   -14.56 dB      4:55 04-Bacchanal
DR7       -1.21 dB    -9.71 dB      3:43 05-Sunshine Superman
DR9       -1.21 dB   -12.95 dB      5:22 06-Some Velvet Morning
DR9       -1.21 dB   -11.80 dB      3:15 07-The Look of Love
DR8       -1.21 dB   -11.48 dB      3:19 08-The Divided City
--------------------------------------------------------------------------------

Number of tracks:  8
Official DR value: DR8

Samplerate:        44100 Hz
Channels:          2
Bits per sample:   24
Bitrate:           1331 kbps
Codec:             FLAC
================================================================================
Приватный:
Нет (DHT включён)
Размер:
325.98 Мб (341,810,652 байт) » файлов: 13
Участники:
1 раздают, 0 качают (1 участников всего)
Внешние участники:
8 раздают, 2 качают (10 участников всего) [ Обновить ]
No seeders - write personal message to M0p94ok. Any questions - support@pro-jazz.com.
Нет сидеров - пишите в личку M0p94ok. Есть вопросы - support@pro-jazz.com
20:02
180
Нет комментариев. Ваш будет первым!