Поиск

2016 VA - Venus The Amazing Super Audio CD Sampler Vol.15 {Venus} [DSD64]

2016 VA - Venus The Amazing Super Audio CD Sampler Vol.15 {Venus} [DSD64]
Издатель (лейбл):
Номер по каталогу:
VHGD-165
Битрейт аудио:
lossless
Доп. инфо:

Формат записи/Источник записи: [SACD-R][OF]
Наличие водяных знаков: Нет
Издание: Sampler
Год издания/переиздания диска: 2016
Продолжительность: 01:24:48
Наличие сканов в содержимом раздачи: Только обложка альбома

Контейнер: ISO (*.iso)
Тип рипа: image
Разрядность: 64(2,8 MHz/1 Bit)
Формат: DSD
Количество каналов: 2.0

Источник (релизер): venusrecord

Лог проверки качества
foobar2000 1.6.2 / Замер динамического диапазона (DR) 1.1.1
Дата отчёта:  2021-01-16 23:09:43

--------------------------------------------------------------------------------
Анализ:   Various Artists / THE VENUS AMAZING SUPER AUDIO CD SAMPLER VOL.15
--------------------------------------------------------------------------------

DR         Пики         RMS           Продолжительность трека
--------------------------------------------------------------------------------
DR6       -4.91 дБ   -14.08 дБ      5:30 01-Calling You
DR7       -4.75 дБ   -13.42 дБ      6:27 02-Love For Sale
DR12      -5.14 дБ   -21.81 дБ      5:28 03-My One And Only Love
DR8       -5.28 дБ   -15.36 дБ      5:45 04-Cheek To Cheek
DR7       -4.71 дБ   -12.88 дБ      5:30 05-Speak Low
DR6       -5.15 дБ   -12.14 дБ      5:28 06-You And The Night And The Music
DR7       -5.63 дБ   -14.01 дБ      5:49 07-Early Autumn
DR7       -4.83 дБ   -13.74 дБ      2:55 08-Our Love Is Here To Stay
DR7       -3.99 дБ   -12.90 дБ      3:59 09-Rainy Days And Mondays
DR7       -5.09 дБ   -13.04 дБ      6:02 10-Gentle Rain
DR10      -4.88 дБ   -17.59 дБ      5:21 11-Autumn Leaves
DR7       -5.27 дБ   -15.68 дБ      6:57 12-Memories Of You
DR8       -4.91 дБ   -15.93 дБ      6:48 13-Serenade
DR7       -5.43 дБ   -14.26 дБ      6:40 14-Sugar
DR6       -4.80 дБ   -13.68 дБ      6:11 15-Gymnopedie No.1
--------------------------------------------------------------------------------

Количество треков: 15
Реальные значения DR: DR8

Частота:  2822400 Гц / Частота PCM: 352800 Гц
Каналов:  2
Разрядность:   1
Битрейт:  5645 кбит/с
Кодек:   DSD64
================================================================================
No seeders - write personal message to M0p94ok. Any questions - support@pro-jazz.com.
Нет сидеров - пишите в личку M0p94ok. Есть вопросы - support@pro-jazz.com
15:58
125
Нет комментариев. Ваш будет первым!