Вы используете незарегистрированную версию компонента "Вкладки"!

Поиск

2018 Run Logan Run - The Delicate Balance of Terror {Run Logan Run} [24-44.1]

2018 Run Logan Run - The Delicate Balance of Terror {Run Logan Run} [24-44.1]
Дата издания диска:
4 мая 2018
Битрейт аудио:
lossless
Доп. инфо:

Формат записи/Источник записи: [TR24][OF]
Наличие водяных знаков: Нет
Год издания/переиздания диска: 2018
Издатель (лейбл): Run Logan Run
Продолжительность: 00:37:01
Наличие сканов в содержимом раздачи: Только обложка альбома

Контейнер: FLAC (*.flac)
Тип рипа: tracks
Разрядность: 24/44,1
Формат: PCM
Количество каналов: 2.0

Источник (релизер): https://runloganrun.bandcamp.com/album/the-delicate-balance-of-terror

Лог проверки качества
foobar2000 1.6.2 / Dynamic Range Meter 1.1.1
log date: 2021-01-16 16:34:10

--------------------------------------------------------------------------------
Analyzed: Run Logan Run / The Delicate Balance of Terror
--------------------------------------------------------------------------------

DR         Peak         RMS     Duration Track
--------------------------------------------------------------------------------
DR11      -0.10 dB   -13.33 dB      4:14 01-The Ladder
DR10      -0.10 dB   -12.83 dB      4:19 02-Death Is Elsewhere
DR10      -0.10 dB   -13.04 dB      5:40 03-The Delicate Balance of Terror
DR9       -0.10 dB   -11.26 dB      4:12 04-Post-human
DR10      -0.10 dB   -12.87 dB      7:53 05-ELIZA
DR10      -0.10 dB   -12.92 dB     10:43 06-Cleansing
--------------------------------------------------------------------------------

Number of tracks:  6
Official DR value: DR10

Samplerate:        44100 Hz
Channels:          2
Bits per sample:   24
Bitrate:           1458 kbps
Codec:             FLAC
================================================================================
Any questions - support@pro-jazz.com. Есть вопросы - support@pro-jazz.com
02:50
183
Нет комментариев. Ваш будет первым!