Поиск

1974 Hubert Laws - In the Beginning (2017) {CTI} [24-192]

1974 Hubert Laws - In the Beginning (2017) {CTI} [24-192]
Дата записи диска:
6 февраля - 11 февраля 1974
Место записи:
Van Gelder Recording Studio, Englewood Cliffs, New Jersey, USA
Издатель (лейбл):
Битрейт аудио:
lossless
Доп. инфо:

Формат записи/Источник записи: [TR24][OF]
Издание: Remastered
Год издания/переиздания диска: 1974/2017
Продолжительность: 01:03:22
Наличие сканов в содержимом раздачи: Нет

Контейнер: FLAC (*.flac)
Тип рипа: tracks
Разрядность: 24/192
Количество каналов: 2.0

Источник (релизер): King Records

Лог проверки качества
foobar2000 1.4.3 / Dynamic Range Meter 1.1.1
log date: 2021-01-01 11:17:06

--------------------------------------------------------------------------------
Analyzed: Hubert Laws / In The Beginning
--------------------------------------------------------------------------------

DR         Peak         RMS     Duration Track
--------------------------------------------------------------------------------
DR11      -0.01 dB   -13.70 dB      6:55 01-In the Beginning
DR10      -0.01 dB   -13.34 dB      9:01 02-Restoration
DR9       -1.85 dB   -14.66 dB      3:58 03-Gymnopédie No. 1
DR11      -0.01 dB   -14.06 dB      5:24 04-Come Ye Disconsolate
DR12      -0.01 dB   -14.21 dB      5:35 05-Airegin
DR11      -0.01 dB   -12.82 dB      6:57 06-Moment's Notice
DR14      -0.01 dB   -16.88 dB     10:09 07-Reconciliation
DR11      -0.01 dB   -13.92 dB     15:27 08-Mean Lene
--------------------------------------------------------------------------------

Number of tracks:  8
Official DR value: DR11

Samplerate:        192000 Hz
Channels:          2
Bits per sample:   24
Bitrate:           5409 kbps
Codec:             FLAC
================================================================================
No seeders - write personal message to M0p94ok. Any questions - support@pro-jazz.com.
Нет сидеров - пишите в личку M0p94ok. Есть вопросы - support@pro-jazz.com
23:57
139
Нет комментариев. Ваш будет первым!