Поиск

2020 Woody Herman And His Orchestra - The Swing Band Project, Vol. 5 {Jube Legends} [24-48]

2020 Woody Herman And His Orchestra - The Swing Band Project, Vol. 5 {Jube Legends} [24-48]
Стили:
Дата издания диска:
11 декабря 2020
Битрейт аудио:
lossless
Доп. инфо:

Формат записи/Источник записи: [TR24][OF]
Издание: Remastered
Год издания/переиздания диска: 2020
Издатель (лейбл): Jube Legends
Продолжительность: 01:09:37
Наличие сканов в содержимом раздачи: Нет

Контейнер: FLAC (*.flac)
Тип рипа: tracks
Разрядность: 24/48
Количество каналов: 2.0

Источник (релизер): Qobuz

Лог проверки качества
foobar2000 1.4.3 / Dynamic Range Meter 1.1.1
log date: 2020-12-12 20:12:53

--------------------------------------------------------------------------------
Analyzed: Woody Herman & The Four Chips / The Swing Band Project, Vol. 5: Woody Herman (2020 Remaster) (1-2)
          Woody Herman And His Orchestra / The Swing Band Project, Vol. 5: Woody Herman (2020 Remaster) (3-24)
--------------------------------------------------------------------------------

DR         Peak         RMS     Duration Track
--------------------------------------------------------------------------------
DR13      -0.01 dB   -17.79 dB      2:38 11-Yardbird Shuffle
DR11      -0.01 dB   -14.62 dB      2:26 12-Chip's Boogie Woogie
DR12      -0.01 dB   -14.35 dB      3:07 01-Woodchopper's Ball
DR14      -0.01 dB   -15.94 dB      3:16 02-Caliope Blues
DR11      -0.01 dB   -14.07 dB      2:37 03-The Sheik of Araby
DR11      -0.01 dB   -12.83 dB      2:57 04-I've Got You Under My Skin
DR12      -0.01 dB   -14.84 dB      3:07 05-Blues on Parade
DR13      -0.01 dB   -15.28 dB      3:06 06-Four or Five Times
DR12      -0.01 dB   -14.08 dB      3:00 07-Indian Boogie Woogie
DR11      -0.01 dB   -14.18 dB      2:37 08-Bishop's Blues
DR11      -0.01 dB   -14.13 dB      2:45 09-Blues Downstairs
DR13      -0.01 dB   -15.30 dB      2:47 10-New Dupree Blues
DR12      -0.01 dB   -15.05 dB      3:08 13-Blue Flame
DR12      -0.01 dB   -14.51 dB      2:50 14-Fort Worth Jail
DR11      -0.01 dB   -14.30 dB      3:04 15-Perdido
DR11      -0.01 dB   -14.64 dB      3:13 16-Blue Prelude
DR12      -0.01 dB   -15.82 dB      3:07 17-The Golden Wedding
DR10      -0.01 dB   -13.91 dB      3:09 18-Amen
DR10      -0.01 dB   -13.03 dB      2:09 19-Woodsheddin' With Woody
DR12      -0.01 dB   -14.77 dB      2:56 20-Fan It
DR13      -0.01 dB   -15.46 dB      2:51 21-South
DR12      -0.01 dB   -14.54 dB      2:42 22-Too Late
DR13      -0.01 dB   -14.93 dB      2:59 23-Farewell Blues
DR10      -0.01 dB   -14.02 dB      3:17 24-Goin' Home
--------------------------------------------------------------------------------

Number of tracks:  24
Official DR value: DR12

Samplerate:        48000 Hz
Channels:          2
Bits per sample:   24
Bitrate:           1349 kbps
Codec:             FLAC
================================================================================
No seeders - write personal message to M0p94ok. Any questions - support@pro-jazz.com.
Нет сидеров - пишите в личку M0p94ok. Есть вопросы - support@pro-jazz.com
23:24
150
Нет комментариев. Ваш будет первым!