Поиск

1971 The George Colman Quintet - In Baltimore (2020) {Cellar Live} [24-96]

1971 The George Colman Quintet - In Baltimore (2020) {Cellar Live} [24-96]
Стили:
Дата записи диска:
23 мая 1971
Место записи:
The Famous Ballroom, Baltimore, MD, USA
Дата переиздания диска:
11 декабря 2020
Издатель (лейбл):
Битрейт аудио:
lossless
Доп. инфо:

Формат записи/Источник записи: [TR24][OF]
Издание: Remastered
Год издания/переиздания диска: 1971/2020
Продолжительность: 00:46:52
Наличие сканов в содержимом раздачи: Нет

Контейнер: FLAC (*.flac)
Тип рипа: tracks
Разрядность: 24/96
Количество каналов: 2.0

Источник (релизер): HIGHRESAUDIO

Лог проверки качества
foobar2000 1.4.3 / Dynamic Range Meter 1.1.1
log date: 2020-12-11 20:01:19

--------------------------------------------------------------------------------
Analyzed: George Coleman Quintet / The George Colman Quintet in Baltimore
--------------------------------------------------------------------------------

DR         Peak         RMS     Duration Track
--------------------------------------------------------------------------------
DR11      -1.00 dB   -14.57 dB     11:49 01-Afternoon in Paris (Live)
DR10      -1.00 dB   -14.31 dB     10:27 02-Sandu (Live)
DR9       -1.00 dB   -13.63 dB      5:14 03-I Got Rhythm (Live)
DR11      -1.00 dB   -15.30 dB      9:55 04-Body & Soul (Live)
DR11      -1.00 dB   -14.31 dB      9:30 05-Joy Spring (Live)
--------------------------------------------------------------------------------

Number of tracks:  5
Official DR value: DR10

Samplerate:        96000 Hz
Channels:          2
Bits per sample:   24
Bitrate:           3313 kbps
Codec:             FLAC
================================================================================
No seeders - write personal message to M0p94ok. Any questions - support@pro-jazz.com.
Нет сидеров - пишите в личку M0p94ok. Есть вопросы - support@pro-jazz.com
18:53
149
Нет комментариев. Ваш будет первым!