Поиск

2018 Steve Nelson Jazz Quartet - Jitterbug Waltz (2019) {Venus VHGD-348} [DSD64]

2018 Steve Nelson Jazz Quartet - Jitterbug Waltz (2019) {Venus VHGD-348} [DSD64]
Дата записи диска:
10 декабря 2018
Место записи:
Riverside Studio, Torino, Italy
Издатель (лейбл):
Номер по каталогу:
VHGD-348
Битрейт аудио:
lossless

Треклист:

1. The Dream's on Me  09:43
2. Close Your Eyes  07:41
3. Eronel  07:35
4. Dexterity  04:44
5. Monk's Dream  06:53
6. Watch What Happens  07:43
7. Steve's Blues  08:05
8. Jitterbug Waltz  07:31

Доп. инфо:

Формат записи/Источник записи: [SACD-R][OF]
Наличие водяных знаков: Нет
Год издания диска: 2019
Продолжительность: 01:00:01
Наличие сканов в содержимом раздачи: Да (сканы)

Контейнер: ISO (*.iso)
Тип рипа: image
Разрядность: 64(2,8 MHz/1 Bit)
Формат: DSD
Количество каналов: 2.0

Доп. информация: venusrecord
Источник (релизер): jazzy pic

Лог проверки качества
foobar2000 1.6.2 / Замер динамического диапазона (DR) 1.1.1
Дата отчёта:  2020-12-14 21:16:05

--------------------------------------------------------------------------------
Анализ:   STEVE NELSON JAZZ QUARTET / Jitterbug Waltz
--------------------------------------------------------------------------------

DR         Пики         RMS           Продолжительность трека
--------------------------------------------------------------------------------
DR7       -3.67 дБ   -12.60 дБ      9:43 01-The Dream's On Me
DR7       -3.42 дБ   -12.86 дБ      7:42 02-Close Your Eyes
DR7       -4.00 дБ   -12.98 дБ      7:35 03-Eronel
DR7       -4.00 дБ   -12.11 дБ      4:44 04-Dexterity
DR6       -4.08 дБ   -12.75 дБ      6:54 05-Monk's Dream
DR7       -3.94 дБ   -14.13 дБ      7:43 06-Watch What Happens
DR6       -3.94 дБ   -13.16 дБ      8:06 07-Steve's Blues
DR7       -3.92 дБ   -13.62 дБ      7:33 08-Jitterbug Waltz
--------------------------------------------------------------------------------

Количество треков: 8
Реальные значения DR: DR7

Частота:  2822400 Гц / Частота PCM: 352800 Гц
Каналов:  2
Разрядность:   1
Битрейт:  5645 кбит/с
Кодек:   DSD64
================================================================================
Приватный:
Нет (DHT включён)
Размер:
2.42 Гб (2,601,752,435 байт) » файлов: 4
Участники:
0 раздают, 0 качают (0 участников всего)
Внешние участники:
3 раздают, 1 качают (4 участников всего) [ Обновить ]
No seeders - write personal message to M0p94ok. Нет сидеров - пишите в личку M0p94ok.
16:01
127
Нет комментариев. Ваш будет первым!