Поиск

1976 Roger Glenn - Reachin' (2020) {Craft} [24-192]

1976 Roger Glenn - Reachin' (2020) {Craft} [24-192]
Стили:
Дата переиздания диска:
30 октября 2020
Битрейт аудио:
lossless

Треклист:

01 - Reachin' 04:16
02 - Rio 05:48
03 - Don't Leave 04:02
04 - EBFS 04:52
05 - Overtime 03:55
06 - Kick 06:27
07 - Gloria 05:39
08 - Rezo Chango 03:18

Доп. инфо:

Формат записи/Источник записи: [TR24][OF]
Издание: Remastered
Год издания/переиздания диска: 1976/2020
Издатель (лейбл): Craft Recordings
Продолжительность: 00:38:17
Наличие сканов в содержимом раздачи: Нет

Контейнер: FLAC (*.flac)
Тип рипа: tracks
Разрядность: 24/192
Количество каналов: 2.0

Источник (релизер): HIGHRESAUDIO

Лог проверки качества
foobar2000 1.4.6 / Dynamic Range Meter 1.1.1
log date: 2020-11-03 04:25:07

--------------------------------------------------------------------------------
Analyzed: Roger Glenn / Reachin'
--------------------------------------------------------------------------------

DR         Peak         RMS     Duration Track
--------------------------------------------------------------------------------
DR9       -0.50 dB   -11.54 dB      4:18 01-Reachin'
DR9       -0.50 dB   -10.46 dB      5:51 02-Rio
DR10      -0.50 dB   -12.42 dB      4:06 03-Don't Leave
DR11      -0.50 dB   -12.52 dB      4:52 04-EBFS
DR9       -0.50 dB   -11.90 dB      3:57 05-Overtime
DR10      -0.50 dB   -12.16 dB      6:30 06-Kick
DR7       -0.50 dB    -9.62 dB      5:41 07-Gloria
DR13      -0.50 dB   -14.57 dB      3:17 08-Rezo Chango
--------------------------------------------------------------------------------

Number of tracks:  8
Official DR value: DR10

Samplerate:        192000 Hz
Channels:          2
Bits per sample:   24
Bitrate:           5092 kbps
Codec:             FLAC
================================================================================
Приватный:
Нет (DHT включён)
Размер:
1.41 Гб (1,519,255,964 байт) » файлов: 13
Участники:
0 раздают, 0 качают (0 участников всего)
Внешние участники:
3 раздают, 1 качают (4 участников всего) [ Обновить ]
No seeders - write personal message to M0p94ok. Нет сидеров - пишите в личку M0p94ok.
14:06
122
Нет комментариев. Ваш будет первым!