Вы используете незарегистрированную версию компонента "Вкладки"!

Поиск

2019 Phil Donkin's Masterfrown - Value {NWOG} [24-44.1]

2019 Phil Donkin's Masterfrown - Value {NWOG} [24-44.1]
Стили:
Дата записи диска:
1 июля 2017
Место записи:
Bauer Studios, Ludwigsburg, Germany
Дата издания диска:
26 апреля 2019
Номер по каталогу:
nwog 026
Носитель:
WEB
Формат:
PCM
Тип рипа:
tracks+.cue
Контейнер:
APE (*.ape)
Количество каналов:
2.0
Разрядность/ЧД:
24/44,1
Битрейт аудио:
lossless
Время звучания:
00:41:03
Наличие сканов:
web
Страна-производитель диска (релиза):
Germany
Релизёр (источник):
M0p94ok
Лог проверки качества
foobar2000 1.3.16 / Dynamic Range Meter 1.1.1
log date: 2019-04-26 11:41:50

--------------------------------------------------------------------------------
Analyzed: Phil Donkin's Masterfrown with Joris Roelofs, Wanja Slavin & Martin France / Value (1)
          Phil Donkin's Masterfrown with Phil Donkin, Wanja Slavin, Joris Roelofs & Martin France / Value (2-8)
--------------------------------------------------------------------------------

DR         Peak         RMS     Duration Track
--------------------------------------------------------------------------------
DR11      -0.61 dB   -14.09 dB      5:53 06-Crown of Thorns
DR11      -0.63 dB   -14.81 dB      6:10 01-Psycho Babble
DR12      -0.65 dB   -15.39 dB      5:20 02-Master Frown
DR12      -0.76 dB   -18.73 dB      4:59 03-Tonal Grimace
DR12      -0.65 dB   -14.68 dB      3:12 04-Jiblet
DR12      -0.65 dB   -15.15 dB      5:40 05-Value
DR11      -0.65 dB   -14.08 dB      5:16 07-Enemy
DR15      -0.66 dB   -18.83 dB      4:39 08-Numb Worm
--------------------------------------------------------------------------------

Number of tracks:  8
Official DR value: DR12

Samplerate:        44100 Hz
Channels:          2
Bits per sample:   24
Bitrate:           1355 kbps
Codec:             FLAC
================================================================================
Any questions - support@pro-jazz.com. Есть вопросы - support@pro-jazz.com
01:10
135
Нет комментариев. Ваш будет первым!