Поиск

2020 Møster! - Dust Breathing {Hubro} [24-48]

2020 Møster! - Dust Breathing {Hubro} [24-48]
Дата издания диска:
11 декабря 2020
Битрейт аудио:
lossless
Доп. инфо:

Формат записи/Источник записи: [TR24][OF]
Наличие водяных знаков: Нет
Год издания/переиздания диска: 2020
Издатель (лейбл): Hubro
Продолжительность: 40:56
Наличие сканов в содержимом раздачи: Только обложка альбома

Контейнер: FLAC (*.flac)
Тип рипа: tracks
Разрядность: 24/48
Формат: PCM
Количество каналов: 2.0

Лог проверки качества
foobar2000 1.6.2 / Dynamic Range Meter 1.1.1
log date: 2020-12-16 13:52:42

--------------------------------------------------------------------------------
Analyzed: Møster! / Dust Breathing
--------------------------------------------------------------------------------

DR         Peak         RMS     Duration Track
--------------------------------------------------------------------------------
DR7       -0.30 dB    -9.35 dB     13:49 01-The Bonfire, The Sun
DR6       -0.50 dB    -8.01 dB      3:26 02-Waistful Tendensities
DR7       -0.50 dB   -10.83 dB      4:11 03-Ausculptation
DR6       -0.50 dB    -9.34 dB      4:27 04-Organ of Bodies I: Blightness
DR6       -0.50 dB    -8.96 dB      9:05 05-Organ of Bodies II: Tentactility
DR6       -0.50 dB    -7.93 dB      5:57 06-Organ of Bodies III: Palpatience
--------------------------------------------------------------------------------

Number of tracks:  6
Official DR value: DR6

Samplerate:        48000 Hz
Channels:          2
Bits per sample:   24
Bitrate:           1781 kbps
Codec:             FLAC
================================================================================
No seeders - write personal message to M0p94ok. Any questions - support@pro-jazz.com.
Нет сидеров - пишите в личку M0p94ok. Есть вопросы - support@pro-jazz.com
12:39
170
Нет комментариев. Ваш будет первым!