Поиск

2020 Alba Molina - El Beso {Blanco y Negro Pop} [24-48]

2020 Alba Molina - El Beso {Blanco y Negro Pop} [24-48]
Дата издания диска:
13 ноября 2020
Битрейт аудио:
lossless

Треклист:

01 - Dicen 03:27
02 - Hoy Llegas Tarde 03:23
03 - Tú 04:01
04 - El Beso 03:17
05 - Un Momento 03:43
06 - Te Quiero Más Que a Nadie 02:46
07 - Loca Me Llama (Crazy He Calls Me) 04:42
08 - Mimosa 03:31
09 - No Me Duele 03:56
10 - Tesoros 02:59

Доп. инфо:

Формат записи/Источник записи: [TR24][OF]
Год издания/переиздания диска: 2020
Издатель (лейбл): Blanco y Negro Pop
Продолжительность: 00:35:45
Наличие сканов в содержимом раздачи: Нет
Контейнер: FLAC (*.flac)
Тип рипа: tracks
Разрядность: 24/48
Количество каналов: 2.0

Источник (релизер): HIGHRESAUDIO

Лог проверки качества
foobar2000 1.6.2 / Dynamic Range Meter 1.1.1
log date: 2020-11-13 11:46:51

--------------------------------------------------------------------------------
Analyzed: Alba Molina / El Beso
--------------------------------------------------------------------------------

DR         Peak         RMS     Duration Track
--------------------------------------------------------------------------------
DR7       -1.58 dB    -9.97 dB      3:27 01-Dicen
DR8       -1.65 dB   -12.27 dB      3:24 02-Hoy Llegas Tarde
DR7       -1.65 dB   -11.06 dB      4:02 03-Tú
DR8       -1.60 dB   -12.37 dB      3:17 04-El Beso
DR11      -1.65 dB   -14.64 dB      3:44 05-Un Momento
DR9       -1.65 dB   -13.84 dB      2:47 06-Te Quiero Más Que a Nadie
DR8       -1.65 dB   -11.67 dB      4:42 07-Loca Me Llama (Crazy He Calls Me)
DR8       -1.19 dB   -11.11 dB      3:32 08-Mimosa
DR8       -1.65 dB   -11.44 dB      3:57 09-No Me Duele
DR10      -1.65 dB   -14.93 dB      3:00 10-Tesoros
--------------------------------------------------------------------------------

Number of tracks:  10
Official DR value: DR8

Samplerate:        48000 Hz
Channels:          2
Bits per sample:   24
Bitrate:           1570 kbps
Codec:             FLAC
================================================================================
Приватный:
Нет (DHT включён)
Размер:
411.77 Мб (431,776,163 байт) » файлов: 15
Участники:
0 раздают, 0 качают (0 участников всего)
Внешние участники:
3 раздают, 1 качают (4 участников всего) [ Обновить ]
No seeders - write personal message to M0p94ok. Any questions - support@pro-jazz.com.
Нет сидеров - пишите в личку M0p94ok. Есть вопросы - support@pro-jazz.com
00:06
117
Нет комментариев. Ваш будет первым!