Вы используете незарегистрированную версию компонента "Вкладки"!

Поиск

2019 Jeff Williams - Bloom {Whirlwind WR 4737} [24-96]

2019 Jeff Williams - Bloom {Whirlwind WR 4737} [24-96]
Стили:
Дата записи диска:
17 августа 2018
Место записи:
Samurai Hotel, Astoria, NY
Дата издания диска:
26 апреля 2019
Номер по каталогу:
WR 4737
Носитель:
WEB
Формат:
PCM
Тип рипа:
tracks+.cue
Контейнер:
APE (*.ape)
Количество каналов:
2.0
Разрядность/ЧД:
24/96
Битрейт аудио:
lossless
Время звучания:
01:00:16
Наличие сканов:
да
Страна-производитель диска (релиза):
USA
Релизёр (источник):
M0p94ok
Лог проверки качества
foobar2000 1.3.16 / Dynamic Range Meter 1.1.1
log date: 2019-04-26 11:40:47

--------------------------------------------------------------------------------
Analyzed: Jeff Williams / Bloom
--------------------------------------------------------------------------------

DR         Peak         RMS     Duration Track
--------------------------------------------------------------------------------
DR11      -0.61 dB   -13.53 dB      3:04 01-Scattershot
DR11      -0.61 dB   -14.39 dB      5:33 02-Another Time
DR13      -0.61 dB   -15.41 dB      5:21 03-Short Tune
DR10      -0.61 dB   -13.64 dB      6:24 04-Scrunge / Search Me
DR13      -0.61 dB   -17.27 dB      6:03 05-Ballad of the Weak
DR12      -0.61 dB   -14.74 dB      5:22 06-New York Landing
DR12      -0.61 dB   -15.17 dB      5:38 07-She Can't Be a Spy
DR14      -0.61 dB   -17.94 dB      6:32 08-Air Dancing
DR10      -0.61 dB   -12.84 dB      5:17 09-A Word Edgewise
DR13      -0.61 dB   -16.61 dB      7:09 10-Northwest
DR12      -0.62 dB   -19.41 dB      3:54 11-Chant
--------------------------------------------------------------------------------

Number of tracks:  11
Official DR value: DR12

Samplerate:        96000 Hz
Channels:          2
Bits per sample:   24
Bitrate:           2766 kbps
Codec:             FLAC
================================================================================
Any questions - support@pro-jazz.com. Есть вопросы - support@pro-jazz.com
00:40
159
Нет комментариев. Ваш будет первым!