Поиск

2008 Aaron Heick & Romantic Jazz Trio - Europe (2015) {Venus VHGD-65} [DSD64]

2008 Aaron Heick & Romantic Jazz Trio - Europe (2015) {Venus VHGD-65} [DSD64]
Стили:
Дата издания диска:
24 июня 2015
Издатель (лейбл):
Номер по каталогу:
VHGD-65
Битрейт аудио:
lossless
Доп. инфо:

Формат записи/Источник записи: [SACD-R][OF]
Наличие водяных знаков: Нет
Год издания/переиздания диска: 2008/2015
Продолжительность: 01:07:53
Наличие сканов в содержимом раздачи: Да (сканы)

Контейнер: ISO (*.iso)
Тип рипа: image
Разрядность: 64(2,8 MHz/1 Bit)
Формат: DSD
Количество каналов: 2.0

Доп. информация: venusrecord
Источник (релизер): jazzy

Лог проверки качества
foobar2000 1.6.2 / Замер динамического диапазона (DR) 1.1.1
Дата отчёта:  2020-12-17 21:02:54

--------------------------------------------------------------------------------
Анализ:   Aaron Heick & Romantic Jazz Trio / EUROPE
--------------------------------------------------------------------------------

DR         Пики         RMS           Продолжительность трека
--------------------------------------------------------------------------------
DR11      -1.45 дБ   -15.25 дБ      6:13 01-Europe
DR10      -2.23 дБ   -15.52 дБ      6:34 02-Harlem Nocturne
DR10      -1.68 дБ   -14.48 дБ      5:49 03-Summer's Gone
DR10      -1.94 дБ   -14.86 дБ      4:34 04-Comin' Home, Baby
DR10      -1.02 дБ   -14.53 дБ      8:10 05-Moon And Sand
DR10      -1.95 дБ   -14.32 дБ      5:11 06-O Que Sera
DR11      -1.29 дБ   -14.57 дБ      5:24 07-And I Love Her
DR11      -2.25 дБ   -15.48 дБ      6:44 08-Infant Eyes
DR10      -1.77 дБ   -14.26 дБ      6:29 09-Where Or When
DR11      -1.64 дБ   -14.63 дБ      7:11 10-Star - Crossed Lovers
DR11      -0.91 дБ   -14.88 дБ      5:33 11-Doin' Alright
--------------------------------------------------------------------------------

Количество треков: 11
Реальные значения DR: DR10

Частота:  2822400 Гц / Частота PCM: 352800 Гц
Каналов:  2
Разрядность:   1
Битрейт:  5645 кбит/с
Кодек:   DSD64
================================================================================
No seeders - write personal message to M0p94ok. Any questions - support@pro-jazz.com.
Нет сидеров - пишите в личку M0p94ok. Есть вопросы - support@pro-jazz.com
00:59
151
Нет комментариев. Ваш будет первым!