Поиск

2021 Louise Jallu - Piazzolla 2021 {Klarthe} [24-48]

2021 Louise Jallu - Piazzolla 2021 {Klarthe} [24-48]
Стили:
Дата издания диска:
15 января 2021
Носитель:
WEB
Формат:
PCM
Тип рипа:
tracks+.cue
Контейнер:
APE (*.ape)
Количество каналов:
2.0
Разрядность/ЧД:
24/48
Битрейт аудио:
lossless
Время звучания:
00:59:21
Наличие сканов:
web
Страна-производитель диска (релиза):
France
Релизёр (источник):
M0p94ok
Доп. инфо:

Многие посвящения были сделаны мастеру танго нуэво, столетие со дня рождения которого мы отметили в 2021 году. Слишком немногие из них могут сравниться с уровнем мастерства самого музыканта, ставшим памятником при его жизни. Взобраться на этот Гималайский пик осмелилась подняться Луиза Джаллу со всей своей юношеской бойкостью. Бандонеониста заручилась поддержкой двух опытных мастеров: Бернара Каванна, сооснователя кафедры бандонеона в консерватории Женневилье, и выдающегося пианиста Густаво Бейтельманна, которому посчастливилось играть вместе с Пьяццоллой. Они оба прекрасно знают, что, прежде чем они смогут сравнить себя с тем, кто был обновлённым провидцем танго, они должны были придерживаться курса, который даёт им шанс впитать в себя основную амбивалентность Пьяццоллы: черпать из самого глубокого источника традиций, находя доселе неизведанные пути.

"Чем глубже мы погружаемся в музыку Пьяццоллы, тем больше осознаем, что должны отказаться от очевидного и искать в его "секретной машине'' - этой секретной машине с её артикуляциями, её сбоями в ритме, её постоянно растянутыми и расширенными мелодиями - для новых пробелов, для других возможных рывков вперёд - даже если это означает потеряться в его извилинах. В глубине души мы на самом деле не знали, куда это нас приведёт », - предупреждает Луиза Джаллу, которая мудро решила использовать её в качестве увеличительного стекла, иногда в качестве ножа она берётся за дюжину произведений, написанных этим бесподобным мелодистом.

"Oblivion", "Buenos Aires Hora Cero", "Soledad", "Adiós Nonino" и, конечно же, "Libertango" включены в меню этого альбома. Французская девушка здесь предпочитает не разыгрывать карту возрождения, предпочитая вместо этого оторваться от оригинала. Это означает: в духе, а не в букве.

"Если вы хотите привнести что-то новое, вам нужно заняться чем-то другим. Вы захватываете его музыку, как если бы это была классика, а затем принимаете её в другом направлении". Луиза Джаллу - это не просто слабый симулякр, но и оживляющая тактика, столь же скрупулезная, сколь и критическая, замедляя темп, очищая новые гармонические пути, переформулируя мелодию. Короче говоря, Луиза добавляет свой собственный комментарий, очень похожий на сноски, украшающие нижнюю часть страницы, даже если она принимает предвзятость некоторой непочтительности, чтобы доказать своё почтение аргентинцу тем лучше. соответствие уникальному постмодерну, которое пронизывает этот объём работ. Это золотая середина, единственное место, где происходит уместное перечитывание этого мастера и можно избежать клише, если вы умеете слушать между строк. Здесь акцент, там чёткий темп. Дальше впереди ритм с колебаниями, частотно-свободная модуляция, суперпозиция фоновых звуков, множество реконструкций, полные обещаний ручные работы будущего. Луиза Джаллу знает, как использовать весь арсенал творческого потенциала в рамках оригинальной музыки. Используя их так же, как косые косы, выгравированные ею квартет (скрипач Матиас Леви, клавишник Грегуар Летуве, контрабасист Александр Перро), необыкновенный горн, на котором играл иконоборческий Медерик Коллиньон. Символическое присутствие, призрачное мерцание, предлагающее великолепную импровизацию, прежде чем вернуться к тем нескольким клавишам на электронной клавиатуре. Его эхо хорошо замечается после того, как прекратилось его звучание. Как будто этого и следовало ожидать.

Лог проверки качества
foobar2000 1.6.2 / Dynamic Range Meter 1.1.1
log date: 2021-02-11 00:44:58

--------------------------------------------------------------------------------
Analyzed: Louise Jallu / Piazzolla 2021
--------------------------------------------------------------------------------

DR         Peak         RMS     Duration Track
--------------------------------------------------------------------------------
DR10      -0.03 dB   -12.83 dB      4:47 01-Soledad
DR7        0.00 dB    -9.15 dB      4:36 02-Tanguedia
DR10       0.00 dB   -14.99 dB      2:36 03-Tristezas de un Doble A (Cadence au bandonéon)
DR7        0.00 dB   -10.32 dB      8:27 04-Tristezas de un Doble A
DR7        0.00 dB    -9.51 dB      6:47 05-Libertango
DR7        0.00 dB    -9.45 dB      5:24 06-Oblivion
DR8        0.00 dB   -11.41 dB      8:20 07-Adiós Nonino
DR9       -0.01 dB   -13.48 dB      3:12 08-Mi Refugio (Bandonéon solo)
DR8        0.00 dB   -12.24 dB      4:51 09-Buenos Aires hora cero
DR9       -0.01 dB   -13.03 dB      4:13 10-Los sueños
DR9        0.00 dB   -13.62 dB      6:16 11-Lo Que Vendrá
--------------------------------------------------------------------------------

Number of tracks:  11
Official DR value: DR8

Samplerate:        48000 Hz
Channels:          2
Bits per sample:   24
Bitrate:           1536 kbps
Codec:             FLAC
================================================================================
No seeders - write personal message to M0p94ok. Any questions - support@pro-jazz.com.
Нет сидеров - пишите в личку M0p94ok. Есть вопросы - support@pro-jazz.com
01:52
147
Нет комментариев. Ваш будет первым!