Поиск

1969 George Russell - Guitar with Orchestra (2019) {Beverly Hills} [24-44.1]

1969 George Russell - Guitar with Orchestra (2019) {Beverly Hills} [24-44.1]
Стили:
Битрейт аудио:
lossless
Доп. инфо:

Формат записи/Источник записи: [TR24][OF]
Издание: Remastered
Год издания/переиздания диска: 1969/2019
Издатель (лейбл): Beverly Hills Records
Продолжительность: 00:22:46
Наличие сканов в содержимом раздачи: Нет
Контейнер: FLAC (*.flac)
Тип рипа: tracks
Разрядность: 24/44,1
Количество каналов: 2.0

Источник (релизер): Qobuz

Лог проверки качества
foobar2000 1.4.3 / Dynamic Range Meter 1.1.1
log date: 2020-12-17 21:40:22

--------------------------------------------------------------------------------
Analyzed: George Russell / Guitar with Orchestra
--------------------------------------------------------------------------------

DR         Peak         RMS     Duration Track
--------------------------------------------------------------------------------
DR12      -1.21 dB   -15.20 dB      2:23 01-Easy Listening
DR12      -1.21 dB   -15.66 dB      2:06 02-In Laguna
DR11      -1.76 dB   -15.46 dB      2:07 03-Juju
DR10      -1.44 dB   -13.61 dB      2:24 04-I'll Walk with the Rain
DR9       -2.50 dB   -13.62 dB      1:52 05-Brazilian Bus
DR11      -1.68 dB   -15.73 dB      2:11 06-Bitter Blue
DR11      -1.43 dB   -14.70 dB      3:01 07-Hello, My Love
DR10      -1.31 dB   -13.84 dB      2:04 08-Talk'n' Talk'n' Talk
DR11      -1.27 dB   -14.75 dB      1:55 09-Tears
DR11      -1.21 dB   -14.90 dB      2:47 10-On the Mountain
--------------------------------------------------------------------------------

Number of tracks:  10
Official DR value: DR11

Samplerate:        44100 Hz
Channels:          2
Bits per sample:   24
Bitrate:           1367 kbps
Codec:             FLAC
================================================================================
No seeders - write personal message to M0p94ok. Any questions - support@pro-jazz.com.
Нет сидеров - пишите в личку M0p94ok. Есть вопросы - support@pro-jazz.com
03:09
155
Нет комментариев. Ваш будет первым!