Поиск

2019 Vincent Bourgeyx - Cosmic Dream {Paris Jazz Underground PJU019} [24-88.2]

2019 Vincent Bourgeyx - Cosmic Dream {Paris Jazz Underground PJU019} [24-88.2]
Стили:
Дата записи диска:
21 сентября - 22 сентября 2017
Место записи:
Studio De Meudon, France
Номер по каталогу:
PJU019
Носитель:
WEB
Формат:
PCM
Тип рипа:
tracks+.cue
Контейнер:
APE (*.ape)
Количество каналов:
2.0
Разрядность/ЧД:
24/88,2
Битрейт аудио:
lossless
Время звучания:
01:06:40
Наличие сканов:
web
Страна-производитель диска (релиза):
France
Релизёр (источник):
M0p94ok
Лог проверки качества
foobar2000 1.3.16 / Dynamic Range Meter 1.1.1
log date: 2019-04-29 23:48:58

--------------------------------------------------------------------------------
Analyzed: Vincent Bourgeyx / Cosmic Dream
--------------------------------------------------------------------------------

DR         Peak         RMS     Duration Track
--------------------------------------------------------------------------------
DR11      -2.12 dB   -15.71 dB      4:28 01-Antoine's Song
DR12      -3.57 dB   -19.86 dB      4:55 02-I Fall in Love Too Easily
DR6       -1.48 dB   -10.63 dB      6:02 03-Lost Garden
DR6       -1.48 dB   -10.24 dB      3:12 04-Middle of Nowhere
DR12      -1.48 dB   -16.24 dB      6:02 05-Cosmic Dream for Blue Shoes
DR12      -1.48 dB   -17.44 dB      4:20 06-Dong
DR10      -1.48 dB   -14.74 dB      6:55 07-It's a Girl
DR6       -1.48 dB    -9.98 dB      4:59 08-One for the Trouds
DR9       -1.48 dB   -13.03 dB      5:42 09-Too Much Love
DR7       -1.48 dB   -11.39 dB      3:11 10-I Love Paris
DR9       -1.48 dB   -12.81 dB      5:23 11-Nervous Yoyo
DR9       -1.48 dB   -12.95 dB      2:43 12-Eternal Beginning
DR13      -2.52 dB   -19.93 dB      4:14 13-Lush Life
DR5       -1.48 dB    -9.48 dB      1:19 14-End of Nowhere
DR12      -3.78 dB   -22.58 dB      3:26 15-Peace
--------------------------------------------------------------------------------

Number of tracks:  15
Official DR value: DR9

Samplerate:        88200 Hz
Channels:          2
Bits per sample:   24
Bitrate:           2076 kbps
Codec:             FLAC
================================================================================
No seeders - write personal message to M0p94ok. Any questions - support@pro-jazz.com.
Нет сидеров - пишите в личку M0p94ok. Есть вопросы - support@pro-jazz.com
10:10
180
Нет комментариев. Ваш будет первым!