Поиск

2009 John Di Martino's Romantic Jazz Trio - The Beatles In Jazz (2017) {Venus VHGD-196} [DSD64]

2009 John Di Martino's Romantic Jazz Trio - The Beatles In Jazz (2017) {Venus VHGD-196} [DSD64]
Издатель (лейбл):
Номер по каталогу:
VHGD-196
Битрейт аудио:
lossless
Доп. инфо:

Формат записи/Источник записи: [SACD-R][OF]
Наличие водяных знаков: Нет
Год издания/переиздания диска: 2009/2017
Продолжительность: 00:59:08
Наличие сканов в содержимом раздачи: Да (сканы)
Контейнер: ISO (*.iso)
Тип рипа: image
Разрядность: 64 (2,8 MHz/1 Bit)
Формат: DSD
Количество каналов: 2.0

Доп. информация: venusrecord
Источник (релизер): Jazzy

Лог проверки качества
foobar2000 1.6.2 / Замер динамического диапазона (DR) 1.1.1
Дата отчёта:  2020-12-18 20:06:29

--------------------------------------------------------------------------------
Анализ:   JOHN DI MARTINO'S ROMANTIC JAZZ TRIO / The Beatles In Jazz
--------------------------------------------------------------------------------

DR         Пики         RMS           Продолжительность трека
--------------------------------------------------------------------------------
DR10      -2.18 дБ   -14.82 дБ      4:27 01-The Fool On The Hill
DR10      -2.54 дБ   -15.04 дБ      4:01 02-Let It Be
DR11      -1.75 дБ   -15.89 дБ      4:27 03-Because
DR10      -1.92 дБ   -14.45 дБ      4:10 04-Fixing A Hole
DR12      -2.57 дБ   -16.80 дБ      4:10 05-In My Life
DR9       -2.56 дБ   -13.70 дБ      4:15 06-Norwegian Wood
DR10      -1.82 дБ   -14.29 дБ      4:48 07-Come Together
DR10      -2.18 дБ   -14.05 дБ      6:06 08-Penny Lane
DR10      -2.40 дБ   -15.44 дБ      3:17 09-Blackbird
DR10      -2.19 дБ   -13.68 дБ      4:05 10-Eleanor Rigby
DR11      -1.55 дБ   -15.36 дБ      4:42 11-Yesterday
DR10      -1.89 дБ   -13.80 дБ      5:48 12-Got To Get You Into My Life
DR11      -1.69 дБ   -14.40 дБ      4:54 13-Here, There And Everywhere
--------------------------------------------------------------------------------

Количество треков: 13
Реальные значения DR: DR10

Частота:  2822400 Гц / Частота PCM: 352800 Гц
Каналов:  2
Разрядность:   1
Битрейт:  5645 кбит/с
Кодек:   DSD64
================================================================================
No seeders - write personal message to M0p94ok. Any questions - support@pro-jazz.com.
Нет сидеров - пишите в личку M0p94ok. Есть вопросы - support@pro-jazz.com
16:03
139
Нет комментариев. Ваш будет первым!