Поиск

2011 John Di Martino's Romantic Jazz Trio - The Beatles In Jazz 2 (2017) {Venus VHGD-256} [DSD64]

2011 John Di Martino's Romantic Jazz Trio - The Beatles In Jazz 2 (2017) {Venus VHGD-256} [DSD64]
Издатель (лейбл):
Номер по каталогу:
VHGD-256
Битрейт аудио:
lossless
Доп. инфо:

Формат записи/Источник записи: [SACD-R][OF]
Наличие водяных знаков: Нет
Год издания/переиздания диска: 2011/2017
Продолжительность: 01:05:54

Контейнер: ISO (*.iso)
Тип рипа: image
Разрядность: 64(2,8 MHz/1 Bit)
Формат: DSD

Доп. информация: venusrecord
Источник (релизер): Jazzy

Лог проверки качества
foobar2000 1.6.2 / Замер динамического диапазона (DR) 1.1.1
Дата отчёта:  2020-12-18 20:59:26

--------------------------------------------------------------------------------
Анализ:   JOHN DI MARTINO'S ROMANTIC JAZZ TRIO / The Beatles In Jazz 2
--------------------------------------------------------------------------------

DR         Пики         RMS           Продолжительность трека
--------------------------------------------------------------------------------
DR8       -3.31 дБ   -13.33 дБ      4:29 01-For No One
DR8       -5.72 дБ   -15.21 дБ      3:47 02-Mother Nature's Son
DR8       -5.65 дБ   -15.25 дБ      5:38 03-Something
DR7       -5.49 дБ   -14.32 дБ      4:29 04-You Never Give Me Your Money
DR8       -5.58 дБ   -15.27 дБ      4:51 05-If I Fell
DR8       -5.52 дБ   -14.85 дБ      4:53 06-She's Leaving Home
DR8       -5.58 дБ   -15.35 дБ      3:29 07-Till There Was You
DR8       -5.56 дБ   -15.05 дБ      4:49 08-Hey Jude
DR8       -5.33 дБ   -14.49 дБ      5:44 09-I'll Follow The Sun
DR7       -5.54 дБ   -15.12 дБ      5:08 10-Girl
DR7       -5.54 дБ   -14.13 дБ      4:01 11-You've Got To Hide Your Love Away
DR8       -5.43 дБ   -14.36 дБ      5:06 12-Oh! Darling
DR8       -5.36 дБ   -14.48 дБ      5:17 13-Why Don't We Do It In The Road
DR8       -5.69 дБ   -15.70 дБ      4:13 14-Imagine
--------------------------------------------------------------------------------

Количество треков: 14
Реальные значения DR: DR8

Частота:  2822400 Гц / Частота PCM: 352800 Гц
Каналов:  2
Разрядность:   1
Битрейт:  5645 кбит/с
Кодек:   DSD64
================================================================================
No seeders - write personal message to M0p94ok. Any questions - support@pro-jazz.com.
Нет сидеров - пишите в личку M0p94ok. Есть вопросы - support@pro-jazz.com
19:41
153
Нет комментариев. Ваш будет первым!