Поиск

2019 Marc Copland - Gary {Illusions} [24-88.2]

2019 Marc Copland - Gary {Illusions} [24-88.2]
Стили:
Дата записи диска:
12 апреля - 13 апреля 2018
Место записи:
Studios La Buissonne, Pernes les Fontaines, France
Дата издания диска:
27 марта 2019
Носитель:
WEB
Формат:
PCM
Тип рипа:
tracks+.cue
Контейнер:
APE (*.ape)
Количество каналов:
2.0
Разрядность/ЧД:
24/88,2
Битрейт аудио:
lossless
Время звучания:
00:42:20
Наличие сканов:
web
Наличие водяных знаков:
нет
Страна-производитель диска (релиза):
France
Релизёр (источник):
M0p94ok

Треклист:

1. Voice from the past (7:05)
2. Gary (5:29)
3. Gaia (5:46)
4. Empty Carousel (4:55)
5. Moor (3:37)
6. Random Mist (4:29)
7. Requiem (5:21)
8. Vignette (5:41)

Лог проверки качества
foobar2000 1.3.16 / Dynamic Range Meter 1.1.1
log date: 2019-04-29 21:11:21

--------------------------------------------------------------------------------
Analyzed: Marc Copland / Gary
--------------------------------------------------------------------------------

DR         Peak         RMS     Duration Track
--------------------------------------------------------------------------------
DR13      -0.25 dB   -17.60 dB      7:05 01-Voice from the Past
DR11      -0.23 dB   -16.26 dB      5:29 02-Gary
DR13      -0.25 dB   -17.73 dB      5:46 03-Gaia
DR14      -0.47 dB   -19.17 dB      4:55 04-Empty Carousel
DR13      -0.25 dB   -18.50 dB      3:37 05-Moor
DR12      -0.22 dB   -17.17 dB      4:29 06-Random Mist
DR14      -0.25 dB   -18.75 dB      5:21 07-Requiem
DR13      -0.26 dB   -19.06 dB      5:41 08-Vignette
--------------------------------------------------------------------------------

Number of tracks:  8
Official DR value: DR13

Samplerate:        88200 Hz
Channels:          2
Bits per sample:   24
Bitrate:           2228 kbps
Codec:             FLAC
================================================================================
Приватный:
Нет (DHT включён)
Размер:
679.74 Мб (712,758,673 байт) » файлов: 10
Участники:
0 раздают, 2 качают (2 участников всего)
Внешние участники:
--- [ Обновить ]
No seeders - write personal message to M0p94ok. Нет сидеров - пишите в личку M0p94ok.
08:02
109
Нет комментариев. Ваш будет первым!