Поиск

2015 Malija - The Day I Had Everything {Edition EDN1064} [24-96]

2015 Malija - The Day I Had Everything {Edition EDN1064} [24-96]
Издатель (лейбл):
Номер по каталогу:
EDN1064
Носитель:
WEB
Формат:
PCM
Тип рипа:
tracks+.cue
Контейнер:
APE (*.ape)
Количество каналов:
2.0
Разрядность/ЧД:
24/96
Битрейт аудио:
lossless
Время звучания:
00:55:55
Наличие сканов:
web
Наличие водяных знаков:
нет
Страна-производитель диска (релиза):
Uk/Denmark
Релизёр (источник):
M0p94ok

Треклист:

01. Squared
02. Mr Wrack
03. Unknown
04. The Pianist
05. Wheels
06. Malija
07. Almost A Tango
08. Blues
09. One For Us
10. Wayne’s World
11. With One Voice

Лог проверки качества
foobar2000 1.3.16 / Dynamic Range Meter 1.1.1
log date: 2019-04-29 14:36:10

--------------------------------------------------------------------------------
Analyzed: Malija / The Day I Had Everything
--------------------------------------------------------------------------------

DR         Peak         RMS     Duration Track
--------------------------------------------------------------------------------
DR11      -0.62 dB   -13.95 dB      5:26 01-Squared
DR10      -0.62 dB   -13.55 dB      4:23 02-Mr Wrack
DR11      -0.62 dB   -13.65 dB      4:23 03-Unknown
DR12      -0.62 dB   -14.03 dB      4:47 04-The Pianist
DR11      -0.62 dB   -14.21 dB      5:49 05-Wheels
DR12      -0.62 dB   -16.41 dB      5:40 06-Malija
DR12      -0.57 dB   -15.87 dB      6:42 07-Almost a Tango
DR11      -0.62 dB   -17.32 dB      3:33 08-Blues
DR12      -0.62 dB   -15.63 dB      4:10 09-One for Us
DR11      -0.62 dB   -15.07 dB      6:58 10-Wayne's World
DR12      -0.87 dB   -16.52 dB      4:13 11-With One Voice
--------------------------------------------------------------------------------

Number of tracks:  11
Official DR value: DR11

Samplerate:        96000 Hz
Channels:          2
Bits per sample:   24
Bitrate:           1253 kbps
Codec:             FLAC
================================================================================
Приватный:
Нет (DHT включён)
Размер:
488.08 Мб (511,789,784 байт) » файлов: 13
Участники:
0 раздают, 1 качают (1 участников всего)
Внешние участники:
--- [ Обновить ]
No seeders - write personal message to M0p94ok. Any questions - support@pro-jazz.com.
Нет сидеров - пишите в личку M0p94ok. Есть вопросы - support@pro-jazz.com
18:33
108
Нет комментариев. Ваш будет первым!