Вы используете незарегистрированную версию компонента "Вкладки"!

Поиск

2011 John Di Martino's Romantic Jazz Trio - The Michael In Jazz (2018) {Venus VHGD-311} [DSD64]

2011 John Di Martino's Romantic Jazz Trio - The Michael In Jazz (2018) {Venus VHGD-311} [DSD64]
Издатель (лейбл):
Номер по каталогу:
VHGD-311
Битрейт аудио:
lossless
Доп. инфо:

Формат записи/Источник записи: [SACD-R][OF]
Наличие водяных знаков: Нет
Год издания/переиздания диска: 2011/2018
Продолжительность: 01:00:40
Наличие сканов в содержимом раздачи: Да (сканы)

Контейнер: ISO (*.iso)
Тип рипа: image
Разрядность: 64(2,8 MHz/1 Bit)
Формат: DSD
Количество каналов: 2.0

Доп. информация: venusrecords
Источник (релизер): jazzy

Лог проверки качества
foobar2000 1.6.2 / Замер динамического диапазона (DR) 1.1.1
Дата отчёта:  2020-12-19 18:10:19

--------------------------------------------------------------------------------
Анализ:   JOHN DI MARTINO'S ROMANTIC JAZZ TRIO / The Michael In Jazz
--------------------------------------------------------------------------------

DR         Пики         RMS           Продолжительность трека
--------------------------------------------------------------------------------
DR8       -2.82 дБ   -11.73 дБ      4:15 01-Beat It
DR8       -2.96 дБ   -11.96 дБ      4:58 02-Billie Jean
DR8       -3.16 дБ   -12.68 дБ      3:13 03-You Are Not Alone
DR9       -3.09 дБ   -13.55 дБ      5:18 04-Ben
DR9       -3.22 дБ   -14.51 дБ      2:51 05-Gone Too Soon
DR8       -3.05 дБ   -12.56 дБ      5:17 06-Human Nature
DR8       -3.00 дБ   -11.69 дБ      4:28 07-I Can't Help It
DR7       -3.31 дБ   -12.14 дБ      3:32 08-I'll Be There
DR8       -3.00 дБ   -12.46 дБ      3:57 09-The Lady In My Life
DR8       -3.07 дБ   -12.38 дБ      3:46 10-Never Can Say Goodbye
DR9       -3.00 дБ   -13.40 дБ      7:06 11-She's Out Of My Life
DR8       -3.02 дБ   -12.27 дБ      3:09 12-The Girl Is Mine
DR8       -2.84 дБ   -11.86 дБ      4:39 13-The Way You Make Me Feel
DR7       -3.02 дБ   -11.45 дБ      4:10 14-I Wanna Be Where You Are
--------------------------------------------------------------------------------

Количество треков: 14
Реальные значения DR: DR8

Частота:  2822400 Гц / Частота PCM: 352800 Гц
Каналов:  2
Разрядность:   1
Битрейт:  5645 кбит/с
Кодек:   DSD64
================================================================================
Any questions - support@pro-jazz.com. Есть вопросы - support@pro-jazz.com
01:05
165
Нет комментариев. Ваш будет первым!