Поиск

2003 Charles McPherson Quartet - But Beautiful (2015) {Venus VHGD-76} [DSD64]

2003 Charles McPherson Quartet - But Beautiful (2015) {Venus VHGD-76} [DSD64]
Дата записи диска:
24 июля - 25 июля 2003
Место записи:
Avatar Studios, New York City, NY, USA
Издатель (лейбл):
Номер по каталогу:
VHGD-76
Битрейт аудио:
lossless
Доп. инфо:

Формат записи/Источник записи: [SACD-R][OF]
Наличие водяных знаков: Нет
Год издания/переиздания диска: 2003/2015
Продолжительность: 01:10:33
Наличие сканов в содержимом раздачи: Да (сканы)

Контейнер: ISO (*.iso)
Тип рипа: image
Разрядность: 64 (2,8 MHz/1 Bit)
Формат: DSD
Количество каналов: 2.0

Доп. информация: venusrecords
Источник (релизер): jazzy pic

Лог проверки качества
foobar2000 1.6.2 / Замер динамического диапазона (DR) 1.1.1
Дата отчёта:  2020-12-19 20:32:57

--------------------------------------------------------------------------------
Анализ:   Charles Mcpherson Quartet Featuring Steve Kuhn / BUT BEAUTIFUL
--------------------------------------------------------------------------------

DR         Пики         RMS           Продолжительность трека
--------------------------------------------------------------------------------
DR10      -1.02 дБ   -12.81 дБ      8:18 01-Be My Love
DR10      -2.98 дБ   -14.88 дБ      8:36 02-I Should Care
DR11      -2.53 дБ   -15.87 дБ     10:15 03-We'll Be Together Again
DR11      -3.11 дБ   -16.44 дБ      8:53 04-My Ideal
DR10      -1.25 дБ   -13.79 дБ      7:21 05-I Didn't Know What Time It Was
DR10      -2.41 дБ   -15.34 дБ      7:07 06-I'll Never Stop Loving You
DR12      -5.41 дБ   -20.54 дБ      3:22 07-Love Letters
DR11      -3.04 дБ   -15.42 дБ      9:27 08-But Beautiful
DR10      -1.18 дБ   -13.93 дБ      7:11 09-Gone With The Wind
--------------------------------------------------------------------------------

Количество треков: 9
Реальные значения DR: DR10

Частота:  2822400 Гц / Частота PCM: 352800 Гц
Каналов:  2
Разрядность:   1
Битрейт:  5645 кбит/с
Кодек:   DSD64
================================================================================
No seeders - write personal message to M0p94ok. Any questions - support@pro-jazz.com.
Нет сидеров - пишите в личку M0p94ok. Есть вопросы - support@pro-jazz.com
20:25
157
Нет комментариев. Ваш будет первым!