Поиск

2016 Leo Sidran - Entre Chien Et Loup (Live in Meudon) {Five Fishes} [24-88.2]

2016 Leo Sidran - Entre Chien Et Loup (Live in Meudon) {Five Fishes} [24-88.2]
Стили:
Место записи:
Studio de Meudon, Paris, France
Дата издания диска:
1 ноября 2016
Носитель:
WEB
Формат:
PCM
Тип рипа:
tracks+.cue
Контейнер:
APE (*.ape)
Количество каналов:
2.0
Разрядность/ЧД:
24/88,2
Битрейт аудио:
lossless
Время звучания:
00:46:36
Наличие сканов:
да
Страна-производитель диска (релиза):
France
Релизёр (источник):
M0p94ok
Лог проверки качества
foobar2000 1.3.16 / Dynamic Range Meter 1.1.1
log date: 2019-04-29 14:35:52

--------------------------------------------------------------------------------
Analyzed: Leo Sidran / Entre chien et loup (Live in Meudon)
--------------------------------------------------------------------------------

DR         Peak         RMS     Duration Track
--------------------------------------------------------------------------------
DR9       -0.03 dB   -11.27 dB      3:51 01-Tonight Someone Is Me (Live in Meudon)
DR10      -0.03 dB   -11.45 dB      3:42 02-Entre chien et loup (Live in Meudon)
DR8       -0.03 dB    -9.87 dB      4:03 03-Speak to Me in Spanish (Live in Meudon)
DR8       -0.03 dB    -8.87 dB      4:18 04-Jamboree (Live in Meudon)
DR7       -0.03 dB    -9.63 dB      6:00 05-Let Me Down Easy (Live in Meudon)
DR9       -0.03 dB   -10.60 dB      3:44 06-Desire (Live in Meudon)
DR7       -0.03 dB    -9.25 dB      3:54 07-Why Can’t I Have (Live in Meudon)
DR9       -0.03 dB   -10.63 dB      4:26 08-After the Damage Is Done (Live in Meudon)
DR9       -0.03 dB   -10.65 dB      3:39 09-Take It All (Live in Meudon)
DR7       -0.03 dB    -9.51 dB      4:57 10-Conversation (Live in Meudon)
DR13      -0.03 dB   -16.97 dB      0:20 11-I’m Gone (Introduction) (Live in Meudon)
DR10      -0.03 dB   -11.79 dB      3:47 12-I’m Gone (Live in Meudon)
--------------------------------------------------------------------------------

Number of tracks:  12
Official DR value: DR9

Samplerate:        88200 Hz
Channels:          2
Bits per sample:   24
Bitrate:           2716 kbps
Codec:             FLAC
================================================================================
No seeders - write personal message to M0p94ok. Any questions - support@pro-jazz.com.
Нет сидеров - пишите в личку M0p94ok. Есть вопросы - support@pro-jazz.com
23:12
180
Нет комментариев. Ваш будет первым!