Поиск

1981 Herbie Hancock - Magic Windows (2013) {Columbia, Legacy} [24-96]

1981 Herbie Hancock - Magic Windows (2013) {Columbia, Legacy} [24-96]
Стили:
Место записи:
Ameraycan Studios, North Hollywood, CA; Automatt San Francisco, CA; Kendun Recording, Los Angeles, CA; The Automatt, San Francisco, CA; Village Recorders, Los Angeles, CA
Дата издания диска:
29 сентября 1981
Издатель (лейбл):
Номер по каталогу:
CBS 85144
Носитель:
WEB
Формат:
PCM
Тип рипа:
tracks+.cue
Контейнер:
APE (*.ape)
Количество каналов:
2.0
Разрядность/ЧД:
24/96
Битрейт аудио:
lossless
Время звучания:
00:42:25
Наличие сканов:
web
Наличие водяных знаков:
нет
Страна-производитель диска (релиза):
USA
Релизёр (источник):
M0p94ok

Треклист:

01. Magic Number (7:26)
02. Tonight's the Night (6:33)
03. Everybody's Broke (7:10)
04. Help Yourself (6:42)
05. Satisfied with Love (6:32)
06. The Twilight Clone (8:20)

Лог проверки качества
foobar2000 1.3.16 / Dynamic Range Meter 1.1.1
log date: 2019-05-01 14:27:55

--------------------------------------------------------------------------------
Analyzed: Herbie Hancock / Magic Windows (1-4)
          John Robinson / Magic Windows (5-6)
--------------------------------------------------------------------------------

DR         Peak         RMS     Duration Track
--------------------------------------------------------------------------------
DR14      -0.81 dB   -15.82 dB      6:30 02-Tonight's the Night
DR14      -0.10 dB   -15.71 dB      6:42 04-Help Yourself
DR14      -0.10 dB   -16.17 dB      6:31 05-Satisfied with Love
DR14      -0.08 dB   -15.65 dB      8:17 06-The Twilight Clone
DR13      -0.10 dB   -14.35 dB      7:22 01-Magic Number
DR14      -0.10 dB   -15.60 dB      7:06 03-Everybody's Broke
--------------------------------------------------------------------------------

Number of tracks:  6
Official DR value: DR14

Samplerate:        96000 Hz
Channels:          2
Bits per sample:   24
Bitrate:           2904 kbps
Codec:             FLAC
================================================================================
Приватный:
Нет (DHT включён)
Размер:
898.54 Мб (942,184,709 байт) » файлов: 8
Участники:
0 раздают, 0 качают (0 участников всего)
Внешние участники:
--- [ Обновить ]
No seeders - write personal message to M0p94ok. Нет сидеров - пишите в личку M0p94ok.
17:10
118
Нет комментариев. Ваш будет первым!