Поиск

2012 Jon Davis Trio - Beauty And The Blues (2018) {Venus VHGD-294} [DSD64]

2012 Jon Davis Trio - Beauty And The Blues (2018) {Venus VHGD-294} [DSD64]
Стили:
Издатель (лейбл):
Номер по каталогу:
VHGD-294
Битрейт аудио:
lossless
Доп. инфо:

Формат записи/Источник записи: [SACD-R][OF]
Наличие водяных знаков: Да
Год издания/переиздания диска: 2012/2018
Продолжительность: 01:10:24
Наличие сканов в содержимом раздачи: Да (сканы)

Контейнер: ISO (*.iso)
Тип рипа: image
Разрядность: 64(2,8 MHz/1 Bit)
Формат: DSD
Количество каналов: 2.0

venusrecords Источник (релизер): jazzy pic

Лог проверки качества
foobar2000 1.6.2 / Замер динамического диапазона (DR) 1.1.1
Дата отчёта:  2020-12-20 18:06:58

--------------------------------------------------------------------------------
Анализ:   JON DAVIS TRIO / Beauty And The Blues
--------------------------------------------------------------------------------

DR         Пики         RMS           Продолжительность трека
--------------------------------------------------------------------------------
DR9       -3.37 дБ   -14.60 дБ      5:50 01-Beautiful Love
DR9       -3.64 дБ   -14.96 дБ      5:00 02-Moon River
DR10      -3.57 дБ   -14.62 дБ      5:38 03-How Long Has This Been Going On
DR9       -3.47 дБ   -13.78 дБ      4:42 04-Beauty And The Blues
DR10      -3.35 дБ   -14.42 дБ      6:06 05-Mr. Lucky
DR10      -3.59 дБ   -15.32 дБ      6:14 06-My One And Only Love
DR9       -3.37 дБ   -14.09 дБ      4:38 07-Autumn Leaves
DR9       -3.09 дБ   -14.32 дБ      4:11 08-Mr. Bojangles
DR9       -3.23 дБ   -13.63 дБ      4:27 09-This Is New
DR9       -3.08 дБ   -13.87 дБ      6:18 10-Gershwin Prelude
DR10      -2.43 дБ   -13.80 дБ      4:39 11-Love Is A Many-Splendored Thing
DR9       -3.40 дБ   -14.68 дБ      7:05 12-The Shadow Of Your Smile
DR9       -3.62 дБ   -13.98 дБ      5:37 13-So In Love
--------------------------------------------------------------------------------

Количество треков: 13
Реальные значения DR: DR9

Частота:  2822400 Гц / Частота PCM: 352800 Гц
Каналов:  2
Разрядность:   1
Битрейт:  5645 кбит/с
Кодек:   DSD64
================================================================================
No seeders - write personal message to M0p94ok. Any questions - support@pro-jazz.com.
Нет сидеров - пишите в личку M0p94ok. Есть вопросы - support@pro-jazz.com
19:21
143
Нет комментариев. Ваш будет первым!