Поиск

2013 Baptiste Trotignon, Mark Turner - Dusk Is A Quiet Place {Naive NJ623211} [24-44.1]

2013 Baptiste Trotignon, Mark Turner - Dusk Is A Quiet Place {Naive NJ623211} [24-44.1]
Дата записи диска:
12 апреля 2011
Место записи:
Belfort, Le Granit; Espace Jazzz, Lausanne; Le Cheval Blanc, Schiltgheim; Théatre D'Abbeville
Дата издания диска:
24 сентября 2013
Издатель (лейбл):
Номер по каталогу:
NJ623211
Носитель:
WEB
Формат:
PCM
Тип рипа:
tracks+.cue
Контейнер:
APE (*.ape)
Количество каналов:
2.0
Разрядность/ЧД:
24/44,1
Битрейт аудио:
lossless
Время звучания:
00:48:49
Наличие сканов:
да
Страна-производитель диска (релиза):
France
Релизёр (источник):
M0p94ok
Лог проверки качества
foobar2000 1.3.16 / Dynamic Range Meter 1.1.1
log date: 2019-05-01 14:24:56

--------------------------------------------------------------------------------
Analyzed: Baptiste Trotignon / Dusk Is A Quiet Place
--------------------------------------------------------------------------------

DR         Peak         RMS     Duration Track
--------------------------------------------------------------------------------
DR7       -1.00 dB   -11.04 dB      7:59 01-Boléro
DR8       -1.00 dB   -11.44 dB      8:14 02-Left Hand Of Darkness
DR5       -1.00 dB    -9.00 dB      3:29 03-Only One
DR7       -1.00 dB   -11.16 dB      8:01 04-Von Gott Will ich nicht lassen / Winter Solstice / Herliebster Jesu, was hast du verlochen
DR6       -1.00 dB    -9.99 dB      6:47 05-Wasteland
DR8       -1.00 dB   -11.24 dB      9:16 06-Sonnet for Stevie
DR7       -1.00 dB    -9.63 dB      5:17 07-O do borogodo
--------------------------------------------------------------------------------

Number of tracks:  7
Official DR value: DR7

Samplerate:        44100 Hz
Channels:          2
Bits per sample:   24
Bitrate:           1383 kbps
Codec:             FLAC
================================================================================
No seeders - write personal message to M0p94ok. Any questions - support@pro-jazz.com.
Нет сидеров - пишите в личку M0p94ok. Есть вопросы - support@pro-jazz.com
11:38
154
Нет комментариев. Ваш будет первым!