Вы используете незарегистрированную версию компонента "Вкладки"!

Поиск

2020 Tigran Hamasyan - The Call Within {Nonesuch} [24-48]

2020 Tigran Hamasyan - The Call Within {Nonesuch} [24-48]
Издатель (лейбл):
Битрейт аудио:
lossless
Доп. инфо:

Формат записи/Источник записи: [TR24][OF]
Наличие водяных знаков: Нет
Год издания/переиздания диска: 2020
Продолжительность: 00:47:51
Наличие сканов в содержимом раздачи: Буклет PDF
Источник (релизер): highresaudio

Контейнер: FLAC (*.flac)
Тип рипа: tracks
Разрядность: 24/48
Формат: PCM
Количество каналов: 2.0

Лог проверки качества
foobar2000 1.1.15 / Dynamic Range Meter 1.1.1
log date: 2020-08-28 18:54:55

--------------------------------------------------------------------------------
Analyzed: Tigran Hamasyan / The Call Within
--------------------------------------------------------------------------------

DR         Peak         RMS     Duration Track
--------------------------------------------------------------------------------
DR8       -0.12 dB   -10.55 dB      5:06 01-Levitation 21
DR9       -0.12 dB   -12.00 dB      5:13 02-Our Film (feat. Areni Aghbabian and Artyom Manukyan)
DR9       -0.12 dB   -10.97 dB      8:23 03-Ara Resurrected
DR11      -3.69 dB   -17.62 dB      1:39 04-At a Post-Historic Seashore
DR9       -0.12 dB   -11.26 dB      4:43 05-Space of Your Existence
DR9       -0.12 dB   -11.80 dB      5:06 06-The Dream Voyager
DR9       -0.12 dB   -12.63 dB      2:30 07-Old Maps (feat. Varduhi Art School Children's Choir)
DR8       -0.12 dB   -10.03 dB      5:19 08-Vortex (feat. Tosin Abasi)
DR9       -0.12 dB   -13.47 dB      3:33 09-37 Newlyweds
DR9       -0.12 dB   -11.25 dB      6:17 10-New Maps
--------------------------------------------------------------------------------

Number of tracks:  10
Official DR value: DR9

Samplerate:        48000 Hz
Channels:          2
Bits per sample:   24
Bitrate:           1760 kbps
Codec:             FLAC
================================================================================
Any questions - support@pro-jazz.com. Есть вопросы - support@pro-jazz.com
14:56
252
Нет комментариев. Ваш будет первым!