Вы используете незарегистрированную версию компонента "Вкладки"!

Поиск

2020 Vincent Peirani & Emile Parisien - Abrazo {ACT Music} [24-88,2]

2020 Vincent Peirani & Emile Parisien - Abrazo {ACT Music} [24-88,2]
Издатель (лейбл):
Битрейт аудио:
lossless
Доп. инфо:

Формат записи/Источник записи: [TR24][OF]
Наличие водяных знаков: Нет
Год издания/переиздания диска: 2020
Продолжительность: 00:52:13
Источник (релизер): highresaudio

Контейнер: FLAC (*.flac)
Тип рипа: tracks
Разрядность: 24/88,2
Формат: PCM
Количество каналов: 2.0

Лог проверки качества
foobar2000 1.3.7 / Dynamic Range Meter 1.1.1
log date: 2020-08-26 18:26:59

--------------------------------------------------------------------------------
Analyzed: Vincent Peirani & Emile Parisien / Abrazo
--------------------------------------------------------------------------------

DR         Peak         RMS     Duration Track
--------------------------------------------------------------------------------
DR10      -0.72 dB   -13.55 dB      4:36 01-The Crave
DR9       -0.72 dB   -13.40 dB      6:07 02-Temptation
DR8       -0.72 dB   -11.24 dB      3:34 03-Fuga y Misterio
DR11      -2.32 dB   -18.07 dB      2:35 04-Between T's
DR9       -0.72 dB   -12.22 dB      5:25 05-Deus Xango
DR11      -0.72 dB   -15.03 dB      5:40 06-Memento
DR8       -0.72 dB   -11.16 dB      6:39 07-A Bebernos los Vientos
DR9       -0.72 dB   -13.74 dB      9:18 08-Nouchka
DR9       -0.72 dB   -12.44 dB      2:40 09-F.T.
DR10      -0.75 dB   -15.39 dB      5:39 10-Army Dreamers
--------------------------------------------------------------------------------

Number of tracks:  10
Official DR value: DR10

Samplerate:        88200 Hz
Channels:          2
Bits per sample:   24
Bitrate:           2403 kbps
Codec:             FLAC
================================================================================
Any questions - support@pro-jazz.com. Есть вопросы - support@pro-jazz.com
13:03
241
Нет комментариев. Ваш будет первым!