Вы используете незарегистрированную версию компонента "Вкладки"!

Поиск

2020 Gregory Porter - All Rise {Universal, Decca} [24-96]

2020 Gregory Porter - All Rise {Universal, Decca} [24-96]
Стили:
Издатель (лейбл):
Битрейт аудио:
lossless
Доп. инфо:

Формат записи/Источник записи: [TR24][OF]
Наличие водяных знаков: Нет
Год издания: 2020
Продолжительность: 01:17:07
Наличие сканов в содержимом раздачи: Только обложка альбома
Контейнер: FLAC (*.flac)
Тип рипа: tracks
Разрядность: 24/96
Формат: PCM
Количество каналов: 2.0
Источник (релизер): highresaudio.com

Лог проверки качества
foobar2000 1.4.8 / Dynamic Range Meter 1.1.1
log date: 2020-08-29 07:50:35

--------------------------------------------------------------------------------
Analyzed: Gregory Porter / All Rise (Deluxe)
--------------------------------------------------------------------------------

DR         Peak         RMS     Duration Track
--------------------------------------------------------------------------------
DR6       -0.97 dB    -8.83 dB      3:55 01-Concorde
DR7       -0.97 dB    -9.03 dB      5:02 02-Dad Gone Thing
DR6       -1.00 dB    -7.97 dB      3:35 03-Revival Song
DR9       -1.00 dB   -12.36 dB      5:54 04-If Love Is Overrated
DR6       -0.97 dB    -9.01 dB      4:56 05-Faith In Love
DR8       -1.00 dB   -11.78 dB      6:03 06-Merchants Of Paradise
DR8       -1.00 dB    -9.52 dB      4:15 07-Long List Of Troubles
DR6       -0.97 dB    -8.89 dB      3:24 08-Mister Holland
DR10      -1.00 dB   -13.69 dB      2:54 09-Modern Day Apprentice
DR8       -1.00 dB   -11.32 dB      6:03 10-Everything You Touch Is Gold
DR8       -0.97 dB    -9.88 dB      4:45 11-Phoenix
DR9       -1.00 dB   -12.15 dB      5:26 12-Merry Go Round
DR7       -1.00 dB   -10.60 dB      6:37 13-Real Truth
DR8       -0.97 dB   -10.61 dB      5:51 14-You Can Join My Band
DR7       -0.97 dB    -9.12 dB      5:20 15-Thank You
DR4       -1.00 dB    -6.22 dB      3:07 16-Revival
--------------------------------------------------------------------------------

Number of tracks:  16
Official DR value: DR7
Samplerate:        96000 Hz
Channels:          2
Bits per sample:   24
Bitrate:           2964 kbps
Codec:             FLAC
================================================================================
Any questions - support@pro-jazz.com. Есть вопросы - support@pro-jazz.com
16:46
240
Нет комментариев. Ваш будет первым!