Вы используете незарегистрированную версию компонента "Вкладки"!

Поиск

2020 Some Band - Jazz & Gäst {Skivtryck, DiscRepublic} [24-48]

2020 Some Band - Jazz & Gäst {Skivtryck, DiscRepublic} [24-48]
Стили:
Битрейт аудио:
lossless
Доп. инфо:

• Формат записи | Источник записи: [TR24][OF]
• Наличие водяных знаков: Нет
• Год издания релиза: 2020
• Лейбл: Skivtryck, DiscRepublic
• Продолжительность: 01:16:23
• Источник: internet
• WEB релиз: ссылка
• Контейнер: FLAC (*.flac)
• Тип рипа: tracks
• Разрядность: 24/48
• Формат: PCM
• Количество каналов: 2.0
• Наличие сканов: front

Лог проверки качества
foobar2000 1.4.2 / Dynamic Range Meter 1.1.1
log date: 2020-03-01 11:44:28

--------------------------------------------------------------------------------
Analyzed: Some Band / Jazz & Gäst
--------------------------------------------------------------------------------

DR         Peak         RMS     Duration Track
--------------------------------------------------------------------------------
DR14      -2.44 dB   -19.51 dB      5:03 01-It Could Happen to You
DR16      -4.14 dB   -24.03 dB      3:45 02-Coming Home
DR15      -2.04 dB   -20.69 dB      7:46 03-Secret Love
DR15      -5.50 dB   -25.59 dB      7:54 04-Some Other Time
DR14      -1.12 dB   -19.48 dB      6:47 05-LetВґs Do It
DR15      -3.95 dB   -23.56 dB      7:49 06-Blusette
DR17       0.00 dB   -20.49 dB      7:18 07-On Green Dolphin Street
DR13      -6.78 dB   -24.25 dB      3:59 08-Visan om mina vänner
DR13      -3.84 dB   -21.35 dB      5:44 09-My Favorite Thing
DR14      -4.60 dB   -23.73 dB      7:52 10-There Will Never Be Another You
DR13      -7.33 dB   -25.32 dB      3:50 11-Mood Indigo
DR13      -7.12 dB   -24.82 dB      6:01 12-Med ögon känsliga för grönt
DR14      -2.43 dB   -19.34 dB      2:36 13-Conversation
--------------------------------------------------------------------------------

Number of tracks:  13
Official DR value: DR14

Samplerate:        48000 Hz
Channels:          2
Bits per sample:   24
Bitrate:           1713 kbps
Codec:             FLAC
================================================================================
Any questions - support@pro-jazz.com. Есть вопросы - support@pro-jazz.com
15:02
245
Нет комментариев. Ваш будет первым!