Вы используете незарегистрированную версию компонента "Вкладки"!

Поиск

2020 Giorgi Mikadze - Georgian Microjamz {RareNoise} [24-44,1]

2020 Giorgi Mikadze - Georgian Microjamz {RareNoise} [24-44,1]
Стили:
Битрейт аудио:
lossless
Доп. инфо:

• Формат записи | Источник записи: [TR24][OF]
• Наличие водяных знаков: Нет
• Год издания релиза: 2020
• Лейбл: RareNoiseRecords
• Продолжительность: 00:56:29
• Источник: internet
• WEB релиз: ссылка
• Контейнер: FLAC (*.flac)
• Тип рипа: tracks
• Разрядность: 24/44,1
• Формат: PCM
• Количество каналов: 2.0
• Наличие сканов: front

Лог проверки качества
foobar2000 1.4.2 / Dynamic Range Meter 1.1.1
log date: 2020-03-01 19:56:54

--------------------------------------------------------------------------------
Analyzed: Giorgi Mikadze / Georgian Microjamz
--------------------------------------------------------------------------------

DR         Peak         RMS     Duration Track
--------------------------------------------------------------------------------
DR9       -0.20 dB   -11.40 dB      3:43 01-Metivuri (feat. Ensemble Basiani)  (Prelude)
DR7       -0.20 dB    -8.26 dB      9:35 02-Dumba Damba
DR9       -2.18 dB   -13.90 dB      1:04 03-Shedzakhili  (Interlude)
DR6       -0.20 dB    -8.53 dB      8:46 04-Elesa (feat. Ensemble Basiani)
DR11      -0.30 dB   -13.54 dB      1:10 05-Mirangula  (Interlude)
DR7       -0.20 dB    -8.80 dB      7:08 06-Moaning (feat. Nana Valishvili)
DR12      -0.30 dB   -14.59 dB      1:21 07-Racha  (Interlude)
DR8       -0.20 dB    -9.70 dB      7:25 08-Maglonia
DR10      -0.30 dB   -12.87 dB      0:35 09-Gelati  (Interlude)
DR8       -0.20 dB    -9.79 dB      5:52 10-Kartlos Blues
DR9       -0.30 dB   -11.66 dB      2:46 11-Gurian Lullaby  (Interlude)
DR8       -0.20 dB   -10.44 dB      4:22 12-Lazhghvash (feat. Ensemble Basiani)
DR7       -0.20 dB    -7.85 dB      2:43 13-Tseruli (feat. Ensemble Basiani)
--------------------------------------------------------------------------------

Number of tracks:  13
Official DR value: DR8

Samplerate:        96000 Hz
Channels:          2
Bits per sample:   24
Bitrate:           3195 kbps
Codec:             FLAC
================================================================================
Any questions - support@pro-jazz.com. Есть вопросы - support@pro-jazz.com
15:28
269
Нет комментариев. Ваш будет первым!