Поиск

2020 Glen Ballard, Randy Kerber - The Eddy {Arista} [24-48]

2020 Glen Ballard, Randy Kerber - The Eddy {Arista} [24-48]
Издатель (лейбл):
Битрейт аудио:
lossless
Треклист:

01. Call Me When You Get There (3:16)
02. Kiss Your Ass Goodbye (2:37)
03. The Eddy (3:37)
04. Kiss Me In The Morning (2:49)
05. Not A Day Goes By (2:13)
06. East Paris (4:42)
07. Let It Go (3:04)
08. Au Milieu (2:03)
09. Open To Persuasion (3:24)
10. On The Way (3:47)
11. Bar Fly (3:29)
12. Can't Stay Away (4:31)
13. Sooner or Later (3:18)
14. The Eddy (Uptempo) (3:49)
15. Gossip (3:04)
16. Snow (feat. Amandla Stenberg and Andre Holland) (2:59)
17. Kiss Me In The Morning (feat. Jorja Smith) (2:55)
18. The Eddy (feat. St. Vincent) (3:43)
19. Dupin's Blue (feat. Julia Harriman) (4:30)
20. Paris in September (feat. Julia Harriman) (4:49)

Доп. инфо:

Формат записи/Источник записи: [TR24][OF]
Наличие водяных знаков: Нет
Год издания: 2020
Продолжительность: 01:08:29
Наличие сканов в содержимом раздачи: Только обложка альбома
Контейнер: FLAC (*.flac)
Тип рипа: tracks
Разрядность: 24/48
Формат: PCM
Количество каналов: 2.0
Источник (релизер): qobuz.com

Лог проверки качества
foobar2000 1.4.8 / Dynamic Range Meter 1.1.1
log date: 2020-05-08 08:01:03

--------------------------------------------------------------------------------
Analyzed: The Eddy / The Eddy (From The Netflix Original Series)
--------------------------------------------------------------------------------

DR         Peak         RMS     Duration Track
--------------------------------------------------------------------------------
DR9       -0.10 dB   -11.50 dB      3:16 01-Call Me When You Get There
DR10      -0.10 dB   -12.77 dB      2:37 02-Kiss Your Ass Goodbye
DR12      -0.35 dB   -17.99 dB      3:37 03-The Eddy
DR11      -0.10 dB   -13.75 dB      2:49 04-Kiss Me In The Morning
DR10      -0.10 dB   -11.05 dB      2:13 05-Not A Day Goes By
DR13      -0.10 dB   -16.75 dB      4:42 06-East Paris
DR11      -0.10 dB   -14.03 dB      3:04 07-Let It Go
DR11      -0.10 dB   -13.61 dB      2:03 08-Au Milieu
DR11      -0.52 dB   -15.82 dB      3:24 09-Open To Persuasion
DR12      -0.10 dB   -13.92 dB      3:47 10-On The Way
DR10      -0.10 dB   -12.46 dB      3:29 11-Bar Fly
DR10      -0.10 dB   -12.23 dB      4:31 12-Can't Stay Away
DR10      -0.10 dB   -12.56 dB      3:18 13-Sooner or Later
DR10      -0.10 dB   -12.31 dB      3:49 14-The Eddy  (Uptempo)
DR11      -0.10 dB   -12.43 dB      3:04 15-Gossip
DR9       -1.40 dB   -15.79 dB      2:59 16-Snow (feat. Amandla Stenberg and Andre Holland)
DR12      -0.20 dB   -14.22 dB      2:55 17-Kiss Me In The Morning (feat. Jorja Smith)
DR13      -0.20 dB   -17.06 dB      3:43 18-The Eddy (feat. St. Vincent)
DR12      -0.10 dB   -14.37 dB      4:30 19-Dupin's Blue (feat. Julia Harriman)
DR9       -0.10 dB   -12.30 dB      4:49 20-Paris in September (feat. Julia Harriman)
--------------------------------------------------------------------------------

Number of tracks:  20
Official DR value: DR11
Samplerate:        48000 Hz
Channels:          2
Bits per sample:   24
Bitrate:           1655 kbps
Codec:             FLAC
================================================================================
Приватный:
Нет (DHT включён)
Размер:
803.17 Мб (842,180,564 байт) » файлов: 22
Участники:
0 раздают, 1 качают (1 участников всего)
Внешние участники:
14 раздают, 5 качают (19 участников всего) [ Обновить ]
Скорость:
0/c 904.00 байт/c
No seeders - write a personal message to user M0p94ok. Нет сидеров - пишите личное сообщение пользователю M0p94ok.
08:05
38
Нет комментариев. Ваш будет первым!