Вы используете незарегистрированную версию компонента "Вкладки"!

Поиск

1976 George Benson and Joe Farrell - Benson & Farrell (2017) {King} [24-192]

1976 George Benson and Joe Farrell - Benson & Farrell (2017) {King} [24-192]
Дата записи диска:
20-21 января 1976
Место записи:
Van Gelder Studios, Englewood Cliffs, NJ
Издатель (лейбл):
Битрейт аудио:
lossless
Доп. инфо:

Формат записи/Источник записи: [TR24][OF]
Издание: Remastered
Год издания/переиздания диска: 1976/2017
Продолжительность: 00:36:26
Наличие сканов в содержимом раздачи: Нет

Контейнер: FLAC (*.flac)
Тип рипа: tracks
Разрядность: 24/192
Количество каналов: 2.0

Источник (релизер): King Jazz & Classics

Лог проверки качества
foobar2000 1.4.3 / Dynamic Range Meter 1.1.1
log date: 2020-02-29 20:37:44

--------------------------------------------------------------------------------
Analyzed: George Benson, Joe Farrell / Benson & Farrell
--------------------------------------------------------------------------------

DR         Peak         RMS     Duration Track
--------------------------------------------------------------------------------
DR13      -0.35 dB   -15.17 dB      6:10 01-Flute Song
DR11      -0.47 dB   -14.26 dB      7:07 02-Beyond The Ozone
DR12      -0.05 dB   -13.51 dB      6:28 03-Camel Hump
DR13      -0.05 dB   -14.89 dB      7:19 04-Rolling Home
DR12      -0.05 dB   -14.11 dB      9:24 05-Old Devil Moon
--------------------------------------------------------------------------------

Number of tracks:  5
Official DR value: DR12

Samplerate:        192000 Hz
Channels:          2
Bits per sample:   24
Bitrate:           5937 kbps
Codec:             FLAC
================================================================================
Any questions - support@pro-jazz.com. Есть вопросы - support@pro-jazz.com
23:44
305
Нет комментариев. Ваш будет первым!