Поиск

2020 Matthias Bublath & Eight Cylinder Bigband - Eight Cylynder Big Band {Yellowbird} [24-96]

2020 Matthias Bublath & Eight Cylinder Bigband - Eight Cylynder Big Band {Yellowbird} [24-96]
Стили:
Треклист:

01 - Bigband Intro Joint (01:56)
02 - Matight Intro (03:47)
03 - Nice Green Bo (07:47)
04 - Eight Cylinder (06:47)
05 - Gospel Song (07:12)
06 - Home Cookin' (08:41)
07 - Return the Source (06:17)
08 - Dump the Goose. (06:16)
09 - Sad Belt (06:40)
10 - Mr. Scales (05:11)
11 - Outro Blow (03:01)
12 - Bolero (04:05)

Доп. инфо:

• Формат записи | Источник записи: [TR24][OF]
• Наличие водяных знаков: Нет
• Год издания релиза: 2020
• Лейбл: Yellowbird Records
• Продолжительность: 01:07:46
• Источник: internet
• WEB релиз: qobuz.com
• Контейнер: FLAC (*.flac)
• Тип рипа: tracks
• Разрядность: 24/96
• Формат: WAV (flac.ape.wv)
• Количество каналов: 2.0
• Наличие сканов: front

Лог проверки качества
foobar2000 1.4.2 / Dynamic Range Meter 1.1.1
log date: 2020-01-29 21:17:19

--------------------------------------------------------------------------------
Analyzed: Matthias Bublath & Eight Cylinder Bigband / Eight Cylynder Big Band
--------------------------------------------------------------------------------

DR         Peak         RMS     Duration Track
--------------------------------------------------------------------------------
DR8       -0.32 dB    -8.99 dB      1:57 01-Bigband Intro Joint
DR8       -0.32 dB   -10.18 dB      3:48 02-Matight Intro
DR7       -0.32 dB    -9.05 dB      7:48 03-Nice Green Bo
DR8       -0.32 dB    -9.82 dB      6:47 04-Eight Cylinder
DR7       -0.32 dB    -9.47 dB      7:12 05-Gospel Song
DR9       -0.32 dB   -10.43 dB      8:41 06-Home Cookin'
DR8       -0.32 dB    -9.66 dB      6:18 07-Return the Source
DR8       -0.32 dB    -9.85 dB      6:16 08-Dump the Goose.
DR8       -0.32 dB   -10.33 dB      6:40 09-Sad Belt
DR8       -0.32 dB   -10.40 dB      5:12 10-Mr. Scales
DR8       -0.32 dB    -9.72 dB      3:01 11-Outro Blow
DR8       -0.32 dB    -9.34 dB      4:06 12-Bolero
--------------------------------------------------------------------------------

Number of tracks:  12
Official DR value: DR8

Samplerate:        96000 Hz
Channels:          2
Bits per sample:   24
Bitrate:           2908 kbps
Codec:             FLAC
================================================================================
Приватный:
Нет (DHT включён)
Размер:
1.43 Гб (1,535,212,623 байт) » файлов: 13
Участники:
13 раздают, 1 качают (14 участников всего)
Внешние участники:
8 раздают, 2 качают (10 участников всего) [ Обновить ]
Скорость:
98.02 Кб/c 1.82 Кб/c
Есть вопросы - пишите личное сообщение пользователю M0p94ok.
16:54
30
Нет комментариев. Ваш будет первым!