Поиск

2018 Hamilton de Holanda Trio - Jacob 10ZZ {Deckdisc} [24-48]

2018 Hamilton de Holanda Trio - Jacob 10ZZ {Deckdisc} [24-48]
Стили:
Носитель:
WEB
Формат:
PCM
Тип рипа:
tracks
Контейнер:
FLAC (*.flac)
Количество каналов:
2.0
Разрядность/ЧД:
24/48
Формат записи/Источник записи:
[TR24][OF]
Время звучания:
00:40:57
Наличие сканов:
только обложка
Наличие водяных знаков:
нет
Релизёр (источник):
M0p94ok
Треклист:

01. Alvorada  03:59
02. Bole Bole  04:49
03. Nostalgia  03:54
04. Remelexo  03:09
05. Forró de Gala  04:10
06. Pérolas  03:40
07. Naquela Mesa  03:12
08. Vale Tudo  02:28
09. Saracoteando  01:44
10. Mágoas  03:35
11. Assanhado  03:59
12. Serenata Jacarepaguá  02:18

Лог проверки качества
foobar2000 1.3.16 / Dynamic Range Meter 1.1.1
log date: 2018-12-16 17:11:10

--------------------------------------------------------------------------------
Analyzed: Hamilton de Holanda Trio / Jacob 10ZZ
--------------------------------------------------------------------------------

DR         Peak         RMS     Duration Track
--------------------------------------------------------------------------------
DR9       -0.10 dB    -9.93 dB      4:00 01-Alvorada
DR9       -0.10 dB    -9.65 dB      4:49 02-Bole Bole
DR10      -0.10 dB   -12.88 dB      3:54 03-Nostalgia
DR9       -0.10 dB   -11.04 dB      3:10 04-Remelexo
DR10      -0.10 dB   -11.54 dB      4:10 05-Forró de gala
DR11      -0.10 dB   -13.15 dB      3:40 06-Pérolas
DR10      -0.10 dB   -12.64 dB      3:12 07-Naquela mesa
DR10      -0.30 dB   -12.05 dB      2:29 08-Vale tudo
DR10      -0.30 dB   -11.75 dB      1:45 09-Saracoteando
DR11      -0.10 dB   -12.79 dB      3:35 10-Mágoas
DR9       -0.10 dB   -11.01 dB      3:59 11-Assanhado: Assanhado (Excited)
DR11      -2.05 dB   -15.06 dB      2:19 12-Serenata jacarepaguá
--------------------------------------------------------------------------------

Number of tracks:  12
Official DR value: DR10

Samplerate:        48000 Hz
Channels:          2
Bits per sample:   24
Bitrate:           1437 kbps
Codec:             FLAC
================================================================================
Приватный:
Нет (DHT включён)
Размер:
478.21 Мб (501,444,234 байт) » файлов: 14
Участники:
5 раздают, 0 качают (5 участников всего)
Внешние участники:
--- [ Обновить ]
Есть вопросы - пишите личное сообщение пользователю M0p94ok.
18:46
20
Нет комментариев. Ваш будет первым!