Поиск

2020 Ferenc Nemeth - Freedom {Dreamers Collective} [24-96]

2020 Ferenc Nemeth - Freedom {Dreamers Collective} [24-96]
Стили:
Издатель (лейбл):
Носитель:
WEB
Формат:
PCM
Тип рипа:
tracks
Контейнер:
FLAC (*.flac)
Количество каналов:
2.0
Разрядность/ЧД:
24/96
Формат записи/Источник записи:
[TR24][OF]
Время звучания:
00:51:57
Наличие сканов:
только обложка
Наличие водяных знаков:
нет
Страна-производитель диска (релиза):
USA
Релизёр (источник):
M0p94ok

Треклист:

01 Triumph, Pt. 2 4:18
02 Drumterlude, Pt. 1 1:08
03 The Peacock 3:45
04 Drumterlude, Pt. 2 0:22
05 Farmboy 3:07
06 Drumterlude, Pt. 3 1:13
07 Floating 4:36
08 Marrakech 4:44
09 Freedom 3:09
10 The Fugitive 5:08
11 Drumterlude, Pt. 4 0:23
12 Dare to Dream 3:58
13 Get Up 5:53
14 Drumterlude, Pt. 5 1:08
15 Bluefrica 3:08
16 Soccer Game 3:57
17 Epilogue 1:52

Лог проверки качества
foobar2000 1.4.2 / Dynamic Range Meter 1.1.1
log date: 2020-01-29 21:35:04

--------------------------------------------------------------------------------
Analyzed: Ferenc Nemeth / Freedom
--------------------------------------------------------------------------------

DR         Peak         RMS     Duration Track
--------------------------------------------------------------------------------
DR11      -0.50 dB   -13.97 dB      4:19 01-Triumph, Pt. 2
DR18      -4.24 dB   -29.37 dB      1:08 02-Drumterlude, Pt. 1
DR9       -0.50 dB   -12.84 dB      3:45 03-The Peacock
DR14      -0.50 dB   -19.55 dB      0:22 04-Drumterlude, Pt. 2
DR13      -0.50 dB   -18.10 dB      3:08 05-Farmboy
DR13      -0.50 dB   -16.74 dB      1:13 06-Drumterlude, Pt. 3
DR8       -0.50 dB   -10.66 dB      4:36 07-Floating
DR12      -0.50 dB   -15.45 dB      4:45 08-Marrakech
DR14      -0.50 dB   -16.52 dB      3:10 09-Freedom
DR10      -0.50 dB   -13.24 dB      5:08 10-The Fugitive
DR15      -4.34 dB   -22.29 dB      0:24 11-Drumterlude, Pt. 4
DR10      -0.50 dB   -15.34 dB      3:59 12-Dare to Dream
DR10      -0.50 dB   -14.89 dB      5:53 13-Get Up
DR18      -0.50 dB   -22.28 dB      1:09 14-Drumterlude, Pt. 5
DR10      -0.50 dB   -13.77 dB      3:09 15-Bluefrica
DR11      -0.50 dB   -13.45 dB      3:58 16-Soccer Game
DR12      -0.50 dB   -15.87 dB      1:52 17-Epilogue
--------------------------------------------------------------------------------

Number of tracks:  17
Official DR value: DR12

Samplerate:        96000 Hz
Channels:          2
Bits per sample:   24
Bitrate:           2606 kbps
Codec:             FLAC
================================================================================
Приватный:
Нет (DHT включён)
Размер:
1.07 Гб (1,148,533,862 байт) » файлов: 18
Участники:
1 раздают, 0 качают (1 участников всего)
Внешние участники:
10 раздают, 3 качают (13 участников всего) [ Обновить ]
Есть вопросы - пишите личное сообщение пользователю M0p94ok.
17:10
21
Нет комментариев. Ваш будет первым!